File Size380.0 MB (398,505,539 bytes)
DownloadAnonFiles | ClickNUpload | DownloadGG | KrakenFiles | MultiUp
  • BdUpload
  • DownAce
  • Fichier
  • FileCloud
  • Filerio
  • FilesCdn
  • IndiShare
  • Kbagi
  • Turbobit
  • UpToBox
  • Uppit
| ZippyShare
HashesCRC32: 5167FCC4, MD5: 0296D5645D123B6C70B03B59C5202BDF, SHA1: 41FA62A2520C3D4AA88667D1A4C1045C25866889, SHA256: 36EBA224A9E4A23838358C27780FC3AF5676EB36E5F816B4AB212A15D0BB2FFF, ED2K: A9C5C19686CE5275AA76E9733649334D
Screenshots
screenshotscreenshotscreenshotscreenshotscreenshot
SubtitlesAll Attachments | eng [ASS]
Additional Info
General
Unique ID                                : 45123403414433775391198849835323059297 (0x21F2738DD39CB5F939C2CF16072F6C61)
Complete name                            : [BlueSilverSect] Douluo Dalu - 206v1 (1080p) [x264].mkv
Format                                   : Matroska
Format version                           : Version 4
File size                                : 380 MiB
Duration                                 : 16 min 19 s
Overall bit rate                         : 3 253 kb/s
Encoded date                             : UTC 2022-04-30 07:13:21
Writing application                      : mkvmerge v67.0.0 ('Under Stars') 64-bit
Writing library                          : libebml v1.4.2 + libmatroska v1.6.4

Video
ID                                       : 1
Format                                   : AVC
Format/Info                              : Advanced Video Codec
Format profile                           : High@L4
Format settings                          : CABAC / 4 Ref Frames
Format settings, CABAC                   : Yes
Format settings, Reference frames        : 4 frames
Codec ID                                 : V_MPEG4/ISO/AVC
Duration                                 : 16 min 19 s
Bit rate                                 : 3 157 kb/s
Width                                    : 1 920 pixels
Height                                   : 1 080 pixels
Display aspect ratio                     : 16:9
Frame rate mode                          : Constant
Frame rate                               : 30.000 FPS
Color space                              : YUV
Chroma subsampling                       : 4:2:0
Bit depth                                : 8 bits
Scan type                                : Progressive
Bits/(Pixel*Frame)                       : 0.051
Stream size                              : 369 MiB (97%)
Writing library                          : ptw-1.1.0 rcm-adapt vs-93 vwk
Default                                  : Yes
Forced                                   : No
Color range                              : Limited
Color primaries                          : BT.709
Transfer characteristics                 : BT.709
Matrix coefficients                      : BT.709

Audio
ID                                       : 2
Format                                   : AAC LC
Format/Info                              : Advanced Audio Codec Low Complexity
Codec ID                                 : A_AAC-2
Duration                                 : 16 min 19 s
Bit rate                                 : 93.4 kb/s
Channel(s)                               : 2 channels
Channel layout                           : L R
Sampling rate                            : 48.0 kHz
Frame rate                               : 46.875 FPS (1024 SPF)
Compression mode                         : Lossy
Delay relative to video                  : -42 ms
Stream size                              : 10.9 MiB (3%)
Language                                 : Chinese
Default                                  : Yes
Forced                                   : No

Text
ID                                       : 3
Format                                   : ASS
Codec ID                                 : S_TEXT/ASS
Codec ID/Info                            : Advanced Sub Station Alpha
Duration                                 : 15 min 46 s
Bit rate                                 : 150 b/s
Count of elements                        : 274
Compression mode                         : Lossless
Stream size                              : 17.4 KiB (0%)
Language                                 : English
Default                                  : Yes
Forced                                   : No
beta
Anime DDL+NZB mirror
Current Time: 06/07/2022 13:11



About/FAQs

Discord