File Size509.4 MB (534,101,535 bytes)
DownloadClickNUpload | DownloadGG | KrakenFiles
MultiUp: Part1
  • BdUpload
  • DownAce
  • Fichier
  • FileCloud
  • Filerio
  • FilesCdn
  • IndiShare
  • Kbagi
  • Turbobit
  • UpToBox
  • Uppit
, Part2
  • BdUpload
  • DownAce
  • Fichier
  • FileCloud
  • Filerio
  • FilesCdn
  • IndiShare
  • Kbagi
  • Turbobit
  • UpToBox
  • Uppit

ZippyShare: Part1, Part2
HashesCRC32: FCCCA3A5, MD5: CCA147A43964ACD97A34B8CF70DB76AB, SHA1: BC26A3946263343070D99D374F9F522425EE2ACE, SHA256: 39E9CE232A243F6BFEA443FFAD1C968D82F75833535F875797CC4F20A7B70E14, ED2K: 99DD6016A4D671B58BC65359BA2ECD46
Screenshots
screenshotscreenshotscreenshotscreenshotscreenshot
SubtitlesAll Attachments | eng [ASS]
Additional Info
General
Unique ID                                : 256433155715639445306069422191762736530 (0xC0EB3AB58B5890F2CF21DECF40340592)
Complete name                            : [BlueSilverSect] Douluo Dalu - 205v1 (1080p) [x264].mkv
Format                                   : Matroska
Format version                           : Version 4
File size                                : 509 MiB
Duration                                 : 16 min 46 s
Overall bit rate                         : 4 246 kb/s
Encoded date                             : UTC 2022-04-23 08:53:34
Writing application                      : mkvmerge v67.0.0 ('Under Stars') 64-bit
Writing library                          : libebml v1.4.2 + libmatroska v1.6.4

Video
ID                                       : 1
Format                                   : AVC
Format/Info                              : Advanced Video Codec
Format profile                           : High@L4
Format settings                          : CABAC / 4 Ref Frames
Format settings, CABAC                   : Yes
Format settings, Reference frames        : 4 frames
Codec ID                                 : V_MPEG4/ISO/AVC
Duration                                 : 16 min 46 s
Bit rate                                 : 4 150 kb/s
Width                                    : 1 920 pixels
Height                                   : 1 080 pixels
Display aspect ratio                     : 16:9
Frame rate mode                          : Constant
Frame rate                               : 30.000 FPS
Color space                              : YUV
Chroma subsampling                       : 4:2:0
Bit depth                                : 8 bits
Scan type                                : Progressive
Bits/(Pixel*Frame)                       : 0.067
Stream size                              : 498 MiB (98%)
Writing library                          : ptw-1.0.143 rcm-adapt vs-93 vwk
Default                                  : Yes
Forced                                   : No
Color range                              : Limited
Color primaries                          : BT.709
Transfer characteristics                 : BT.709
Matrix coefficients                      : BT.709

Audio
ID                                       : 2
Format                                   : AAC LC
Format/Info                              : Advanced Audio Codec Low Complexity
Codec ID                                 : A_AAC-2
Duration                                 : 16 min 46 s
Bit rate                                 : 93.4 kb/s
Channel(s)                               : 2 channels
Channel layout                           : L R
Sampling rate                            : 48.0 kHz
Frame rate                               : 46.875 FPS (1024 SPF)
Compression mode                         : Lossy
Delay relative to video                  : -42 ms
Stream size                              : 11.2 MiB (2%)
Language                                 : Chinese
Default                                  : Yes
Forced                                   : No

Text
ID                                       : 3
Format                                   : ASS
Codec ID                                 : S_TEXT/ASS
Codec ID/Info                            : Advanced Sub Station Alpha
Duration                                 : 16 min 3 s
Bit rate                                 : 100 b/s
Count of elements                        : 195
Compression mode                         : Lossless
Stream size                              : 11.8 KiB (0%)
Language                                 : English
Default                                  : Yes
Forced                                   : No
beta
Anime DDL+NZB mirror
Current Time: 06/07/2022 13:50



About/FAQs

Discord