File Size453.0 MB (475,036,741 bytes)
DownloadClickNUpload | DownloadGG | KrakenFiles | MultiUp
  • BdUpload
  • DownAce
  • Fichier
  • FileCloud
  • Filerio
  • FilesCdn
  • IndiShare
  • Kbagi
  • Turbobit
  • UpToBox
  • Uppit
| ZippyShare
HashesCRC32: B248B079, MD5: 4542A7E5118089A903586C445C21C632, SHA1: F7D1412C97B1D9F5772CEBB83CB4453DC91E0F61, SHA256: 4E83CE05D019BAF501DCCEB5CD79F743B259EF8168121920981042CABD15BC62, ED2K: 0237C325D50BB6B93189C1240B9609CB
Screenshots
screenshotscreenshotscreenshotscreenshotscreenshot
SubtitlesAll Attachments | eng [ASS]
Additional Info
General
Unique ID                                : 177207857987336246742154241308594971658 (0x8550FDF43A06BC084C9FF18E4A16A40A)
Complete name                            : [BlueSilverSect] Douluo Dalu - 204v1 (1080p) [x264].mkv
Format                                   : Matroska
Format version                           : Version 4
File size                                : 453 MiB
Duration                                 : 16 min 11 s
Overall bit rate                         : 3 910 kb/s
Encoded date                             : UTC 2022-04-16 06:27:12
Writing application                      : mkvmerge v67.0.0 ('Under Stars') 64-bit
Writing library                          : libebml v1.4.2 + libmatroska v1.6.4

Video
ID                                       : 1
Format                                   : AVC
Format/Info                              : Advanced Video Codec
Format profile                           : High@L4
Format settings                          : CABAC / 4 Ref Frames
Format settings, CABAC                   : Yes
Format settings, Reference frames        : 4 frames
Codec ID                                 : V_MPEG4/ISO/AVC
Duration                                 : 16 min 11 s
Bit rate                                 : 3 814 kb/s
Width                                    : 1 920 pixels
Height                                   : 1 080 pixels
Display aspect ratio                     : 16:9
Frame rate mode                          : Constant
Frame rate                               : 30.000 FPS
Color space                              : YUV
Chroma subsampling                       : 4:2:0
Bit depth                                : 8 bits
Scan type                                : Progressive
Bits/(Pixel*Frame)                       : 0.061
Stream size                              : 442 MiB (98%)
Writing library                          : ptw-1.0.140 rcm-adapt vs-93
Default                                  : Yes
Forced                                   : No
Color range                              : Limited
Color primaries                          : BT.709
Transfer characteristics                 : BT.709
Matrix coefficients                      : BT.709

Audio
ID                                       : 2
Format                                   : AAC LC
Format/Info                              : Advanced Audio Codec Low Complexity
Codec ID                                 : A_AAC-2
Duration                                 : 16 min 11 s
Bit rate                                 : 93.4 kb/s
Channel(s)                               : 2 channels
Channel layout                           : L R
Sampling rate                            : 48.0 kHz
Frame rate                               : 46.875 FPS (1024 SPF)
Compression mode                         : Lossy
Delay relative to video                  : -42 ms
Stream size                              : 10.8 MiB (2%)
Language                                 : Chinese
Default                                  : Yes
Forced                                   : No

Text
ID                                       : 3
Format                                   : ASS
Codec ID                                 : S_TEXT/ASS
Codec ID/Info                            : Advanced Sub Station Alpha
Duration                                 : 15 min 38 s
Bit rate                                 : 113 b/s
Count of elements                        : 208
Compression mode                         : Lossless
Stream size                              : 13.0 KiB (0%)
Language                                 : English
Default                                  : Yes
Forced                                   : No
beta
Anime DDL+NZB mirror
Current Time: 05/07/2022 13:12



About/FAQs

Discord