File Size409.5 MB (429,442,765 bytes)
DownloadClickNUpload | DownloadGG | KrakenFiles | MultiUp
  • BdUpload
  • DownAce
  • Fichier
  • FileCloud
  • Filerio
  • FilesCdn
  • IndiShare
  • Kbagi
  • Turbobit
  • UpToBox
  • Uppit
| ZippyShare
HashesCRC32: 269CC229, MD5: D80F7A2FEC4129800F36E2BA3975648B, SHA1: 27EA1C07FCE9B4A8C165FFEA1D26A4E15A944277, SHA256: 6AF3D916FABBC69D2D99B94B89D78FC03380A347B7E9B6BB3B46A2F05DDE81CC, ED2K: DA194E1503FF3CD800FDAE06DEBFA140
Screenshots
screenshotscreenshotscreenshotscreenshotscreenshot
SubtitlesAll Attachments | eng [ASS]
Additional Info
General
Unique ID                                : 192089669491270072870688238212695662754 (0x90831FE8EF91692B8076AA478D6B20A2)
Complete name                            : [BlueSilverSect] Douluo Dalu - 203v1 (1080p) [x264].mkv
Format                                   : Matroska
Format version                           : Version 4
File size                                : 410 MiB
Duration                                 : 15 min 52 s
Overall bit rate                         : 3 606 kb/s
Encoded date                             : UTC 2022-04-09 17:57:58
Writing application                      : mkvmerge v64.0.0 ('Willows') 64-bit
Writing library                          : libebml v1.4.2 + libmatroska v1.6.4

Video
ID                                       : 1
Format                                   : AVC
Format/Info                              : Advanced Video Codec
Format profile                           : High@L4
Format settings                          : CABAC / 4 Ref Frames
Format settings, CABAC                   : Yes
Format settings, Reference frames        : 4 frames
Codec ID                                 : V_MPEG4/ISO/AVC
Duration                                 : 15 min 52 s
Bit rate                                 : 3 510 kb/s
Width                                    : 1 920 pixels
Height                                   : 1 080 pixels
Display aspect ratio                     : 16:9
Frame rate mode                          : Constant
Frame rate                               : 30.000 FPS
Color space                              : YUV
Chroma subsampling                       : 4:2:0
Bit depth                                : 8 bits
Scan type                                : Progressive
Bits/(Pixel*Frame)                       : 0.056
Stream size                              : 399 MiB (97%)
Writing library                          : ptw-1.0.140 rcm-adapt vs-93
Default                                  : Yes
Forced                                   : No
Color range                              : Limited
Color primaries                          : BT.709
Transfer characteristics                 : BT.709
Matrix coefficients                      : BT.709

Audio
ID                                       : 2
Format                                   : AAC LC
Format/Info                              : Advanced Audio Codec Low Complexity
Codec ID                                 : A_AAC-2
Duration                                 : 15 min 52 s
Bit rate                                 : 93.4 kb/s
Channel(s)                               : 2 channels
Channel layout                           : L R
Sampling rate                            : 48.0 kHz
Frame rate                               : 46.875 FPS (1024 SPF)
Compression mode                         : Lossy
Delay relative to video                  : -42 ms
Stream size                              : 10.6 MiB (3%)
Language                                 : Chinese
Default                                  : Yes
Forced                                   : No

Text
ID                                       : 3
Format                                   : ASS
Codec ID                                 : S_TEXT/ASS
Codec ID/Info                            : Advanced Sub Station Alpha
Duration                                 : 15 min 10 s
Bit rate                                 : 75 b/s
Count of elements                        : 136
Compression mode                         : Lossless
Stream size                              : 8.41 KiB (0%)
Language                                 : English
Default                                  : Yes
Forced                                   : No
beta
Anime DDL+NZB mirror
Current Time: 05/07/2022 13:03



About/FAQs

Discord