File Size667.7 MB (700,163,937 bytes)
DownloadClickNUpload | DownloadGG | KrakenFiles
MultiUp: Part1
  • BdUpload
  • DownAce
  • Fichier
  • FileCloud
  • Filerio
  • FilesCdn
  • IndiShare
  • Kbagi
  • Turbobit
  • UpToBox
  • Uppit
, Part2
  • BdUpload
  • DownAce
  • Fichier
  • FileCloud
  • Filerio
  • FilesCdn
  • IndiShare
  • Kbagi
  • Turbobit
  • UpToBox
  • Uppit

ZippyShare: Part1, Part2
HashesCRC32: CED53C34, MD5: 9D3D6A9C45CAE640A892F4C1A4AC1A68, SHA1: E53429C2C0C5FC424F8E78B5092AE88F556515A2, SHA256: 8B6E0DDFAC023BCCF3916637F212504F20BF52A6861EB1541E6B4899B2EF1328, ED2K: 5C0ECFE2D429948BD62175C5A4867D7B
Screenshots
screenshotscreenshotscreenshotscreenshotscreenshot
SubtitlesAll Attachments | eng [ASS]
Additional Info
General
Unique ID                                : 282911629448595237841771720793538558332 (0xD4D6CC41AB80312752D740018949F97C)
Complete name                            : [BlueSilverSect] Douluo Dalu - 199v1 (1080p) [x264].mkv
Format                                   : Matroska
Format version                           : Version 4
File size                                : 668 MiB
Duration                                 : 20 min 39 s
Overall bit rate                         : 4 519 kb/s
Encoded date                             : UTC 2022-03-12 08:47:56
Writing application                      : mkvmerge v64.0.0 ('Willows') 64-bit
Writing library                          : libebml v1.4.2 + libmatroska v1.6.4

Video
ID                                       : 1
Format                                   : AVC
Format/Info                              : Advanced Video Codec
Format profile                           : High@L4
Format settings                          : CABAC / 4 Ref Frames
Format settings, CABAC                   : Yes
Format settings, Reference frames        : 4 frames
Codec ID                                 : V_MPEG4/ISO/AVC
Duration                                 : 20 min 39 s
Bit rate                                 : 4 423 kb/s
Width                                    : 1 920 pixels
Height                                   : 1 080 pixels
Display aspect ratio                     : 16:9
Frame rate mode                          : Constant
Frame rate                               : 30.000 FPS
Color space                              : YUV
Chroma subsampling                       : 4:2:0
Bit depth                                : 8 bits
Scan type                                : Progressive
Bits/(Pixel*Frame)                       : 0.071
Stream size                              : 654 MiB (98%)
Writing library                          : ptw-1.0.143 rcm-adapt vs-96 vwk
Default                                  : Yes
Forced                                   : No
Color range                              : Limited
Color primaries                          : BT.709
Transfer characteristics                 : BT.709
Matrix coefficients                      : BT.709

Audio
ID                                       : 2
Format                                   : AAC LC
Format/Info                              : Advanced Audio Codec Low Complexity
Codec ID                                 : A_AAC-2
Duration                                 : 20 min 39 s
Bit rate                                 : 93.4 kb/s
Channel(s)                               : 2 channels
Channel layout                           : L R
Sampling rate                            : 48.0 kHz
Frame rate                               : 46.875 FPS (1024 SPF)
Compression mode                         : Lossy
Delay relative to video                  : -42 ms
Stream size                              : 13.8 MiB (2%)
Language                                 : Chinese
Default                                  : Yes
Forced                                   : No

Text
ID                                       : 3
Format                                   : ASS
Codec ID                                 : S_TEXT/ASS
Codec ID/Info                            : Advanced Sub Station Alpha
Duration                                 : 18 min 16 s
Bit rate                                 : 83 b/s
Count of elements                        : 183
Compression mode                         : Lossless
Stream size                              : 11.2 KiB (0%)
Language                                 : English
Default                                  : Yes
Forced                                   : No
beta
Anime DDL+NZB mirror
Current Time: 06/07/2022 14:13



About/FAQs

Discord