[BlueMoon]Doraemon (2005) - 515 [720P][9B6DBFF3].mkv


File Size497.0 MB (521,151,848 bytes)
DownloadClickNUpload | DiskoKosmiko | Go4Up | Jheberg | MultiUp | OpenLoad | SolidFiles | ZippyShare
Sendspace: Part1, Part2
HashesCRC32: 9B6DBFF3, MD5: 9EE9020F27BE0D18D6DC7068D553A8EF, SHA1: FEBE1285A0212BDC359B36F64905ED092A971F25, SHA256: F1EE45AAE5D6794F23B0AB4128D87F9EC889A12F13ABF120E2B8A24C863DF905, ED2K: BAB6A9522D23325A3986E3A8B9976786
Screenshots
screenshotscreenshotscreenshotscreenshotscreenshot
SubtitlesAll Attachments | und [ASS]
Additional Info
General
Unique ID                                : 8417789547469571960946367424944766081 (0x6553511516A5AAAB0B8DE70E1B57C81)
Complete name                            : [BlueMoon]Doraemon (2005) - 515 [720P][9B6DBFF3].mkv
Format                                   : Matroska
Format version                           : Version 4 / Version 2
File size                                : 497 MiB
Duration                                 : 24 min 31 s
Overall bit rate                         : 2 834 kb/s
Encoded date                             : UTC 2018-03-22 08:49:55
Writing application                      : mkvmerge v19.0.0 ('Brave Captain') 64-bit
Writing library                          : libebml v1.3.5 + libmatroska v1.4.8
Attachments                              : Austie Bost Chunky Description.ttf / duprrg_.ttf / FrancophilSans.ttf / FrancophilSans-Bold.ttf / FZCuYuan-M03T.ttf / Pooh.ttf / segoeuib.ttf / Vogel Bold.ttf / APJapanesefont.ttf

Video
ID                                       : 1
Format                                   : AVC
Format/Info                              : Advanced Video Codec
Format profile                           : High@L5
Format settings, CABAC                   : Yes
Format settings, ReFrames                : 4 frames
Codec ID                                 : V_MPEG4/ISO/AVC
Duration                                 : 24 min 29 s
Bit rate                                 : 2 620 kb/s
Width                                    : 1 280 pixels
Height                                   : 720 pixels
Display aspect ratio                     : 16:9
Frame rate mode                          : Constant
Frame rate                               : 23.976 (24000/1001) FPS
Color space                              : YUV
Chroma subsampling                       : 4:2:0
Bit depth                                : 8 bits
Scan type                                : Progressive
Bits/(Pixel*Frame)                       : 0.119
Stream size                              : 459 MiB (92%)
Writing library                          : x264 core 148 r2638 7599210
Encoding settings                        : cabac=1 / ref=1 / deblock=1:1:1 / analyse=0x3:0x113 / me=hex / subme=2 / psy=1 / psy_rd=1.00:0.00 / mixed_ref=0 / me_range=16 / chroma_me=1 / trellis=0 / 8x8dct=1 / cqm=0 / deadzone=21,11 / fast_pskip=1 / chroma_qp_offset=0 / threads=12 / lookahead_threads=4 / sliced_threads=0 / nr=0 / decimate=1 / interlaced=0 / bluray_compat=0 / constrained_intra=0 / bframes=3 / b_pyramid=2 / b_adapt=1 / b_bias=0 / direct=1 / weightb=1 / open_gop=0 / weightp=1 / keyint=250 / keyint_min=23 / scenecut=40 / intra_refresh=0 / rc_lookahead=10 / rc=crf / mbtree=1 / crf=18.0 / qcomp=0.60 / qpmin=0 / qpmax=69 / qpstep=4 / vbv_maxrate=100000 / vbv_bufsize=4170 / crf_max=0.0 / nal_hrd=none / filler=0 / ip_ratio=1.40 / aq=1:1.00
Default                                  : Yes
Forced                                   : No

Audio
ID                                       : 2
Format                                   : AAC
Format/Info                              : Advanced Audio Codec
Format profile                           : LC
Codec ID                                 : A_AAC
Duration                                 : 24 min 29 s
Bit rate                                 : 160 kb/s
Channel(s)                               : 2 channels
Channel positions                        : Front: L R
Sampling rate                            : 48.0 kHz
Frame rate                               : 46.875 FPS (1024 spf)
Compression mode                         : Lossy
Delay relative to video                  : 9 ms
Stream size                              : 28.0 MiB (6%)
Default                                  : Yes
Forced                                   : No

Text
ID                                       : 3
Format                                   : ASS
Codec ID                                 : S_TEXT/ASS
Codec ID/Info                            : Advanced Sub Station Alpha
Duration                                 : 24 min 30 s
Bit rate                                 : 190 b/s
Count of elements                        : 505
Compression mode                         : Lossless
Stream size                              : 34.2 KiB (0%)
Default                                  : Yes
Forced                                   : No

Menu
00:20:16.900                             : :Trailer
00:23:29.908                             : :Doragao Janken
00:23:59.897                             : :Next Episode Preview
beta
Anime DDL+NZB mirror
Current Time: 13/06/2024 08:10



About/FAQs

Discord