File Size1.060 GB (1,138,312,943 bytes)
DownloadClickNUpload | DropAPK
DownloadGG: Part1, Part2
MultiUp: Part1
  • BdUpload
  • DownAce
  • Fichier
  • FileCloud
  • Filerio
  • FilesCdn
  • IndiShare
  • Kbagi
  • Turbobit
  • UpToBox
  • Uppit
, Part2
  • BdUpload
  • DownAce
  • Fichier
  • FileCloud
  • Filerio
  • FilesCdn
  • IndiShare
  • Kbagi
  • Turbobit
  • UpToBox
  • Uppit
, Part3
  • BdUpload
  • DownAce
  • Fichier
  • FileCloud
  • Filerio
  • FilesCdn
  • IndiShare
  • Kbagi
  • Turbobit
  • UpToBox
  • Uppit

SolidFiles: Part1, Part2, Part3
ZippyShare: Part1, Part2, Part3
HashesCRC32: B5C2D5A3, MD5: D7D7BE1365711C016DBB27627AB5A714, SHA1: D912809909C3E9084F544E2FC5E0FC7BBCCC3C12, SHA256: 1D6CA053A2191550E627959CF15510AD672D429BAEE7BC681309B5A4118794E2, ED2K: 9AE7A1110E029F83305785B62AE3312C
Screenshots
screenshotscreenshotscreenshotscreenshotscreenshot
SubtitlesAll Attachments | English [eng, SRT], Thai [tha, SRT], Vietnamese [vie, SRT], Chinese (traditional) [chi, SRT], Chinese (simplified) [chi, SRT]
Additional Info
General
Unique ID                                : 174522897503392611001953408161499603312 (0x834BE32E804990738A2ACA3A87686170)
Complete name                            : [BiliBili] Kobayashi-san Chi no Maid Dragon S - 03 [2160p][Multiple Subtitle].mkv
Format                                   : Matroska
Format version                           : Version 4
File size                                : 1.06 GiB
Duration                                 : 23 min 40 s
Overall bit rate                         : 6 413 kb/s
Encoded date                             : UTC 2021-07-21 16:19:24
Writing application                      : mkvmerge v59.0.0 ('Shining Star') 64-bit
Writing library                          : libebml v1.4.2 + libmatroska v1.6.4

Video
ID                                       : 1
Format                                   : AVC
Format/Info                              : Advanced Video Codec
Format profile                           : High@L5.1
Format settings                          : CABAC / 4 Ref Frames
Format settings, CABAC                   : Yes
Format settings, ReFrames                : 4 frames
Codec ID                                 : V_MPEG4/ISO/AVC
Duration                                 : 23 min 39 s
Bit rate                                 : 6 095 kb/s
Width                                    : 3 840 pixels
Height                                   : 2 160 pixels
Display aspect ratio                     : 16:9
Frame rate mode                          : Constant
Frame rate                               : 23.976 (24000/1001) FPS
Color space                              : YUV
Chroma subsampling                       : 4:2:0
Bit depth                                : 8 bits
Scan type                                : Progressive
Bits/(Pixel*Frame)                       : 0.031
Stream size                              : 1.01 GiB (95%)
Writing library                          : BiliBili H264 Encoder v1.0
Default                                  : Yes
Forced                                   : No
Color range                              : Limited
Color primaries                          : BT.709
Transfer characteristics                 : BT.709
Matrix coefficients                      : BT.709

Audio
ID                                       : 2
Format                                   : AAC LC
Format/Info                              : Advanced Audio Codec Low Complexity
Codec ID                                 : A_AAC-2
Duration                                 : 23 min 40 s
Bit rate                                 : 315 kb/s
Channel(s)                               : 2 channels
Channel layout                           : L R
Sampling rate                            : 48.0 kHz
Frame rate                               : 46.875 FPS (1024 SPF)
Compression mode                         : Lossy
Stream size                              : 53.3 MiB (5%)
Language                                 : Japanese
Default                                  : Yes
Forced                                   : No

Text #1
ID                                       : 3
Format                                   : UTF-8
Codec ID                                 : S_TEXT/UTF8
Codec ID/Info                            : UTF-8 Plain Text
Duration                                 : 23 min 39 s
Bit rate                                 : 73 b/s
Count of elements                        : 420
Stream size                              : 12.7 KiB (0%)
Title                                    : English
Language                                 : English
Default                                  : No
Forced                                   : No

Text #2
ID                                       : 4
Format                                   : UTF-8
Codec ID                                 : S_TEXT/UTF8
Codec ID/Info                            : UTF-8 Plain Text
Duration                                 : 23 min 39 s
Bit rate                                 : 186 b/s
Count of elements                        : 368
Stream size                              : 32.3 KiB (0%)
Title                                    : Thai
Language                                 : Thai
Default                                  : No
Forced                                   : No

Text #3
ID                                       : 5
Format                                   : UTF-8
Codec ID                                 : S_TEXT/UTF8
Codec ID/Info                            : UTF-8 Plain Text
Duration                                 : 23 min 39 s
Bit rate                                 : 98 b/s
Count of elements                        : 428
Stream size                              : 17.1 KiB (0%)
Title                                    : Vietnamese
Language                                 : Vietnamese
Default                                  : No
Forced                                   : No

Text #4
ID                                       : 6
Format                                   : UTF-8
Codec ID                                 : S_TEXT/UTF8
Codec ID/Info                            : UTF-8 Plain Text
Duration                                 : 23 min 39 s
Bit rate                                 : 61 b/s
Count of elements                        : 389
Stream size                              : 10.7 KiB (0%)
Title                                    : Chinese (traditional)
Language                                 : Chinese
Default                                  : No
Forced                                   : No

Text #5
ID                                       : 7
Format                                   : UTF-8
Codec ID                                 : S_TEXT/UTF8
Codec ID/Info                            : UTF-8 Plain Text
Duration                                 : 23 min 38 s
Bit rate                                 : 61 b/s
Count of elements                        : 388
Stream size                              : 10.6 KiB (0%)
Title                                    : Chinese (simplified)
Language                                 : Chinese
Default                                  : No
Forced                                   : No
beta
Anime DDL+NZB mirror
Current Time: 19/10/2021 13:10



About/FAQs

Discord