File Size137.9 MB (144,585,580 bytes)
DownloadAnonFiles | EmbedUpload | Jheberg | Mega | MultiUpload | Sendspace | ShareBeast
HashesCRC32: FB9DC8B2, MD5: 880409076C9FADA376758E9783BFD9F2, SHA1: D02AD63170C1EA760153E0358349388381AD8E02, SHA256: 444DAE533D4FCCAA6A8464EBE3BF502DB584D0FCCD6B35238327270993ADF3F0, ED2K: AEA1D126BA16B4EFAA92ECBF823A267F
Screenshots
screenshotscreenshotscreenshotscreenshotscreenshot
Additional Info
General
Complete name                            : Beyblade Shogun Steel - 15 - The Best 8 Decided! [C-W].avi
Format                                   : AVI
Format/Info                              : Audio Video Interleave
File size                                : 138 MiB
Duration                                 : 22mn 19s
Overall bit rate                         : 864 Kbps
Writing library                          : VirtualDub build 35491/release

Video
ID                                       : 0
Format                                   : MPEG-4 Visual
Format profile                           : Advanced Simple@L5
Format settings, BVOP                    : 2
Format settings, QPel                    : No
Format settings, GMC                     : No warppoints
Format settings, Matrix                  : Default (H.263)
Muxing mode                              : Packed bitstream
Codec ID                                 : XVID
Codec ID/Hint                            : XviD
Duration                                 : 22mn 19s
Bit rate                                 : 724 Kbps
Width                                    : 704 pixels
Height                                   : 396 pixels
Display aspect ratio                     : 16:9
Frame rate                               : 29.970 fps
Color space                              : YUV
Chroma subsampling                       : 4:2:0
Bit depth                                : 8 bits
Scan type                                : Progressive
Compression mode                         : Lossy
Bits/(Pixel*Frame)                       : 0.087
Stream size                              : 116 MiB (84%)
Writing library                          : XviD 73

Audio
ID                                       : 1
Format                                   : MPEG Audio
Format version                           : Version 1
Format profile                           : Layer 3
Mode                                     : Joint stereo
Mode extension                           : MS Stereo
Codec ID                                 : 55
Codec ID/Hint                            : MP3
Duration                                 : 22mn 19s
Bit rate mode                            : Constant
Bit rate                                 : 128 Kbps
Channel count                            : 2 channels
Sampling rate                            : 48.0 KHz
Compression mode                         : Lossy
Stream size                              : 20.4 MiB (15%)
Alignment                                : Split accross interleaves
Interleave, duration                     : 33 ms (1.00 video frame)
Interleave, preload duration             : 500 ms
beta
Anime DDL+NZB mirror
Current Time: 24/07/2021 22:32



About/FAQs