[Bereke Scrubs] Fang of the Sun Dougram - 31 - The Hot Winds of Palmina [480p Hardsub] [5C522F7E].mp4


File Size217.1 MB (227,658,510 bytes)
DownloadAnonFiles | ClickNUpload | DropAPK | Free | MultiUp
  • BdUpload
  • DownAce
  • Fichier
  • FileCloud
  • Filerio
  • FilesCdn
  • IndiShare
  • Kbagi
  • Turbobit
  • UpToBox
  • Uppit
| Sendspace | SolidFiles | ZippyShare
HashesCRC32: 5C522F7E, MD5: 57BE3277BC2F62AC3C75EC4BD59C471E, SHA1: 84A3CFA6AB5077D0A5A381A91B302494C79460D6, SHA256: 3378FF8E3D0EE65B2464E77A919D3593480EA7CB0793469547320DF0AF186EA3, ED2K: 5F1E6E606DDAA729AC2B351169349162
Screenshots
screenshotscreenshotscreenshotscreenshotscreenshot
Additional Info
General
Complete name                            : [Bereke Scrubs] Fang of the Sun Dougram - 31 - The Hot Winds of Palmina [480p Hardsub] [5C522F7E].mp4
Format                                   : MPEG-4
Format profile                           : Base Media
Codec ID                                 : isom (isom/iso2/avc1/mp41)
File size                                : 217 MiB
Duration                                 : 24 min 33 s
Overall bit rate                         : 1 236 kb/s
Writing application                      : Lavf58.29.100

Video
ID                                       : 1
Format                                   : AVC
Format/Info                              : Advanced Video Codec
Format profile                           : High@L3.2
Format settings                          : CABAC / 16 Ref Frames
Format settings, CABAC                   : Yes
Format settings, ReFrames                : 16 frames
Codec ID                                 : avc1
Codec ID/Info                            : Advanced Video Coding
Duration                                 : 24 min 33 s
Bit rate                                 : 1 103 kb/s
Width                                    : 636 pixels
Height                                   : 478 pixels
Display aspect ratio                     : 4:3
Frame rate mode                          : Constant
Frame rate                               : 23.976 (24000/1001) FPS
Color space                              : YUV
Chroma subsampling                       : 4:2:0
Bit depth                                : 8 bits
Scan type                                : Progressive
Bits/(Pixel*Frame)                       : 0.151
Stream size                              : 194 MiB (89%)
Writing library                          : x264 core 159 r2999 296494a
Encoding settings                        : cabac=1 / ref=16 / deblock=1:1:1 / analyse=0x3:0x133 / me=umh / subme=10 / psy=1 / psy_rd=0.40:0.00 / mixed_ref=1 / me_range=24 / chroma_me=1 / trellis=2 / 8x8dct=1 / cqm=0 / deadzone=21,11 / fast_pskip=1 / chroma_qp_offset=-2 / threads=15 / lookahead_threads=3 / sliced_threads=0 / nr=0 / decimate=1 / interlaced=0 / bluray_compat=0 / constrained_intra=0 / bframes=10 / b_pyramid=2 / b_adapt=2 / b_bias=0 / direct=3 / weightb=1 / open_gop=0 / weightp=2 / keyint=250 / keyint_min=23 / scenecut=40 / intra_refresh=0 / rc_lookahead=60 / rc=crf / mbtree=1 / crf=19.0 / qcomp=0.60 / qpmin=0 / qpmax=69 / qpstep=4 / ip_ratio=1.40 / aq=1:0.60
Codec configuration box                  : avcC

Audio
ID                                       : 2
Format                                   : AAC LC
Format/Info                              : Advanced Audio Codec Low Complexity
Codec ID                                 : mp4a-40-2
Duration                                 : 24 min 33 s
Duration_LastFrame                       : -4 ms
Bit rate mode                            : Constant
Bit rate                                 : 128 kb/s
Channel(s)                               : 2 channels
Channel layout                           : L R
Sampling rate                            : 48.0 kHz
Frame rate                               : 46.875 FPS (1024 SPF)
Compression mode                         : Lossy
Stream size                              : 22.5 MiB (10%)
Default                                  : Yes
Alternate group                          : 1

Other Files in this Torrent
[Bereke Scrubs] Fang of the Sun Dougram - 31 - The Hot Winds of Palmina [480p Hardsub] [5C522F7E].mp4
beta
Anime DDL+NZB mirror
Current Time: 01/03/2021 23:35



About/FAQs