[Bereke Scrubs] Fang of the Sun Dougram - 31 - The Hot Winds of Palmina [480p] [E3F89E47].mkv


File Size235.3 MB (246,760,987 bytes)
DownloadAnonFiles | ClickNUpload | DropAPK | Free | MultiUp
  • BdUpload
  • DownAce
  • Fichier
  • FileCloud
  • Filerio
  • FilesCdn
  • IndiShare
  • Kbagi
  • Turbobit
  • UpToBox
  • Uppit
| Sendspace | SolidFiles | ZippyShare
HashesCRC32: E3F89E47, MD5: B219F671B8F40C682E977759DED99640, SHA1: 1A993F96DE7996BDC270B93BBA52EA5474B8945E, SHA256: 0A8DCBA699194C6D44AA85FFBB4062FE961E8034D4649643F895614614FB55BF, ED2K: ABCD44F03EB7D3106031335787665074
Screenshots
screenshotscreenshotscreenshotscreenshotscreenshot
SubtitlesAll Attachments | English - Sub [eng, ASS]
Additional Info
General
Unique ID                                : 163331454813031002886120180112874382698 (0x7AE07E74B7CC252DDAADA13CE149A56A)
Complete name                            : [Bereke Scrubs] Fang of the Sun Dougram - 31 - The Hot Winds of Palmina [480p] [E3F89E47].mkv
Format                                   : Matroska
Format version                           : Version 4
File size                                : 235 MiB
Duration                                 : 24 min 33 s
Overall bit rate                         : 1 340 kb/s
Encoded date                             : UTC 2020-06-03 20:35:03
Writing application                      : mkvmerge v47.0.0 ('Black Flag') 64-bit
Writing library                          : libebml v1.3.10 + libmatroska v1.5.2
Attachments                              : OpenSans-Bold.ttf / OpenSans-Italic.ttf / OpenSans-Regular.ttf

Video
ID                                       : 1
Format                                   : AVC
Format/Info                              : Advanced Video Codec
Format profile                           : High@L4
Format settings                          : CABAC / 16 Ref Frames
Format settings, CABAC                   : Yes
Format settings, ReFrames                : 16 frames
Codec ID                                 : V_MPEG4/ISO/AVC
Duration                                 : 24 min 33 s
Bit rate                                 : 1 206 kb/s
Width                                    : 716 pixels
Height                                   : 478 pixels
Display aspect ratio                     : 4:3
Frame rate mode                          : Constant
Frame rate                               : 23.976 (23976/1000) FPS
Color space                              : YUV
Chroma subsampling                       : 4:2:0
Bit depth                                : 8 bits
Scan type                                : Progressive
Bits/(Pixel*Frame)                       : 0.147
Stream size                              : 212 MiB (90%)
Writing library                          : x264 core 159 r2991 1771b55
Encoding settings                        : cabac=1 / ref=16 / deblock=1:1:1 / analyse=0x3:0x133 / me=umh / subme=10 / psy=1 / psy_rd=0.40:0.00 / mixed_ref=1 / me_range=24 / chroma_me=1 / trellis=2 / 8x8dct=1 / cqm=0 / deadzone=21,11 / fast_pskip=1 / chroma_qp_offset=-2 / threads=15 / lookahead_threads=3 / sliced_threads=0 / nr=0 / decimate=1 / interlaced=0 / bluray_compat=0 / constrained_intra=0 / bframes=10 / b_pyramid=2 / b_adapt=2 / b_bias=0 / direct=3 / weightb=1 / open_gop=0 / weightp=2 / keyint=250 / keyint_min=23 / scenecut=40 / intra_refresh=0 / rc_lookahead=60 / rc=crf / mbtree=1 / crf=19.0 / qcomp=0.60 / qpmin=0 / qpmax=69 / qpstep=4 / ip_ratio=1.40 / aq=1:0.60
Default                                  : Yes
Forced                                   : No

Audio
ID                                       : 2
Format                                   : AAC LC
Format/Info                              : Advanced Audio Codec Low Complexity
Codec ID                                 : A_AAC-2
Duration                                 : 24 min 33 s
Bit rate                                 : 128 kb/s
Channel(s)                               : 2 channels
Channel layout                           : L R
Sampling rate                            : 48.0 kHz
Frame rate                               : 46.875 FPS (1024 SPF)
Compression mode                         : Lossy
Stream size                              : 22.5 MiB (10%)
Title                                    : Japanese
Language                                 : Japanese
Default                                  : Yes
Forced                                   : No

Text
ID                                       : 3
Format                                   : ASS
Codec ID                                 : S_TEXT/ASS
Codec ID/Info                            : Advanced Sub Station Alpha
Duration                                 : 24 min 20 s
Bit rate                                 : 70 b/s
Count of elements                        : 226
Compression mode                         : Lossless
Stream size                              : 12.6 KiB (0%)
Title                                    : English - Sub
Language                                 : English
Default                                  : Yes
Forced                                   : No

Other Files in this Torrent
[Bereke Scrubs] Fang of the Sun Dougram - 31 - The Hot Winds of Palmina [480p] [E3F89E47].mkv
beta
Anime DDL+NZB mirror
Current Time: 22/09/2020 10:09



About/FAQs