File Size2.083 GB (2,237,103,914 bytes)
DownloadClickNUpload: Part1, Part2, Part3
Jheberg: Part1, Part2, Part3
MultiUp: Part1
  • ClickNupload
  • Fichier
  • Filerio
  • Free
  • Fufox
  • HugeFiles
  • Mightyupload
  • ToutBox
  • Turbobit
  • UpToBox
  • Uplea
  • UploadBaz
  • Uploadable
  • Uploaded
  • Uppit
  • Userscloud
, Part2
  • ClickNupload
  • Fichier
  • Filerio
  • Free
  • Fufox
  • HugeFiles
  • Mightyupload
  • ToutBox
  • Turbobit
  • UpToBox
  • Uplea
  • UploadBaz
  • Uploadable
  • Uploaded
  • Uppit
  • Userscloud
, Part3
  • ClickNupload
  • Fichier
  • Filerio
  • Free
  • Fufox
  • HugeFiles
  • Mightyupload
  • ToutBox
  • Turbobit
  • UpToBox
  • Uplea
  • UploadBaz
  • Uploadable
  • Uploaded
  • Uppit
  • Userscloud

OpenLoad: Part1, Part2, Part3
Sendspace: Part1, Part2, Part3, Part4, Part5, Part6, Part7, Part8
SolidFiles: Part1, Part2, Part3, Part4, Part5
HashesCRC32: 59B82964, MD5: 382FE2118C79CB1D26BF9454D0AFC52A, SHA1: D05428804F2FD51366F389AB1BA0342A7C8C1068, SHA256: FB946A6ECBFE36D4DD11FCF233F450F024EF7BF8B1DED853C2E6014FB864101E, ED2K: 749AB6CFE53844A0CE0745BACD6763CE
Screenshots
screenshotscreenshotscreenshotscreenshotscreenshot
SubtitlesAll Attachments | English [Discotek] [eng, ASS]
Additional Info
General
Unique ID                                : 183642608856523907182903762346521032794 (0x8A2847AA8E2782BE822AE3D146BA785A)
Complete name                            : [Beatrice] Babel Nisei OVA 01 [BDRip 1058x720 x264 FLAC].mkv
Format                                   : Matroska
Format version                           : Version 4 / Version 2
File size                                : 2.08 GiB
Duration                                 : 27 min 56 s
Overall bit rate mode                    : Variable
Overall bit rate                         : 10.7 Mb/s
Encoded date                             : UTC 2017-11-09 08:36:09
Writing application                      : mkvmerge v13.0.0 ('The Juggler') 64bit
Writing library                          : libebml v1.3.4 + libmatroska v1.4.5
Attachments                              : ARIBLK_0.TTF / calibrib.ttf / calibriz.ttf / cambriaz.ttf / Vanthian Ragnarok.ttf

Video
ID                                       : 1
Format                                   : AVC
Format/Info                              : Advanced Video Codec
Format profile                           : High 10@L5
Format settings, CABAC                   : Yes
Format settings, ReFrames                : 9 frames
Codec ID                                 : V_MPEG4/ISO/AVC
Duration                                 : 27 min 56 s
Bit rate                                 : 9 783 kb/s
Width                                    : 1 058 pixels
Height                                   : 720 pixels
Display aspect ratio                     : 3:2
Frame rate mode                          : Constant
Frame rate                               : 23.976 (24000/1001) FPS
Color space                              : YUV
Chroma subsampling                       : 4:2:0
Bit depth                                : 10 bits
Scan type                                : Progressive
Bits/(Pixel*Frame)                       : 0.536
Stream size                              : 1.91 GiB (92%)
Title                                    : BDRip by Mulder
Writing library                          : x264 core 148 r2597M e86f3a1 (DJATOM's build)
Encoding settings                        : cabac=1 / ref=9 / deblock=1:-2:-2 / analyse=0x3:0x113 / me=umh / subme=10 / psy=1 / fade_compensate=0.00 / psy_rd=1.00:0.00 / mixed_ref=1 / me_range=32 / chroma_me=1 / trellis=2 / 8x8dct=1 / cqm=0 / deadzone=21,11 / fast_pskip=1 / chroma_qp_offset=-2 / threads=6 / lookahead_threads=1 / sliced_threads=0 / nr=0 / decimate=1 / interlaced=0 / bluray_compat=0 / constrained_intra=0 / bframes=12 / b_pyramid=2 / b_adapt=2 / b_bias=0 / direct=1 / weightb=1 / open_gop=0 / weightp=2 / keyint=250 / keyint_min=23 / scenecut=40 / intra_refresh=0 / rc=crf / mbtree=0 / crf=15.5000 / qcomp=0.72 / qpmin=0 / qpmax=81 / qpstep=4 / ip_ratio=1.40 / pb_ratio=1.30 / aq=1:0.85
Language                                 : Japanese
Default                                  : Yes
Forced                                   : No
Color range                              : Limited
Color primaries                          : BT.709
Transfer characteristics                 : BT.709
Matrix coefficients                      : BT.709

Audio
ID                                       : 2
Format                                   : FLAC
Format/Info                              : Free Lossless Audio Codec
Codec ID                                 : A_FLAC
Duration                                 : 27 min 56 s
Bit rate mode                            : Variable
Bit rate                                 : 876 kb/s
Channel(s)                               : 2 channels
Channel positions                        : Front: L R
Sampling rate                            : 48.0 kHz
Frame rate                               : 11.719 FPS (4096 spf)
Bit depth                                : 24 bits
Stream size                              : 175 MiB (8%)
Title                                    : LPCM->FLAC
Writing library                          : libFLAC 1.2.1 (UTC 2007-09-17)
Language                                 : Japanese
Default                                  : Yes
Forced                                   : No

Text
ID                                       : 3
Format                                   : ASS
Codec ID                                 : S_TEXT/ASS
Codec ID/Info                            : Advanced Sub Station Alpha
Duration                                 : 27 min 25 s
Bit rate                                 : 53 b/s
Count of elements                        : 239
Compression mode                         : Lossless
Stream size                              : 10.7 KiB (0%)
Title                                    : English [Discotek]
Language                                 : English
Default                                  : Yes
Forced                                   : No

Menu
00:00:00.000                             : en:Intro
00:01:14.500                             : en:Part A
00:11:56.500                             : en:Part B
00:26:14.000                             : en:Ending
beta
Anime DDL+NZB mirror
Current Time: 19/11/2017 19:25



About/FAQs