File Size615.0 MB (644,915,605 bytes)
DownloadClickNUpload | Jheberg
MultiUp: Part1
  • BdUpload
  • DownAce
  • Fichier
  • FileCloud
  • Filerio
  • FilesCdn
  • IndiShare
  • Kbagi
  • Turbobit
  • UpToBox
  • Uppit
, Part2
  • BdUpload
  • DownAce
  • Fichier
  • FileCloud
  • Filerio
  • FilesCdn
  • IndiShare
  • Kbagi
  • Turbobit
  • UpToBox
  • Uppit

Sendspace: Part1, Part2, Part3
SolidFiles: Part1, Part2
ZippyShare: Part1, Part2
HashesCRC32: EE7173BA, MD5: D623A583A7F1CD2DADF5BB338EA481A8, SHA1: 20E743A446CA23C34A3F7C2D7448CB5D08FE8EBB, SHA256: 087A061BD221C3F30FD641DE9D0CD88055C165562E2B6216AAE3449325DAD53C, ED2K: A55BB082EBB07294FF456CBD341E4B7F
Screenshots
screenshotscreenshotscreenshotscreenshotscreenshot
Additional Info
General
Complete name                            : [BakedFish] Uchi Tama.! Uchi no Tama Shirimasen ka. - 06 [720p][AAC].mp4
Format                                   : MPEG-4
Format profile                           : Base Media
Codec ID                                 : isom (isom)
File size                                : 615 MiB
Duration                                 : 23 min 7 s
Overall bit rate mode                    : Variable
Overall bit rate                         : 3 719 kb/s
Encoded date                             : UTC 2020-02-12 20:03:16
Tagged date                              : UTC 2020-02-12 20:03:16

Video
ID                                       : 1
Format                                   : AVC
Format/Info                              : Advanced Video Codec
Format profile                           : High@L4.1
Format settings                          : CABAC / 9 Ref Frames
Format settings, CABAC                   : Yes
Format settings, ReFrames                : 9 frames
Codec ID                                 : avc1
Codec ID/Info                            : Advanced Video Coding
Duration                                 : 23 min 7 s
Bit rate                                 : 3 462 kb/s
Maximum bit rate                         : 16.5 Mb/s
Width                                    : 1 280 pixels
Height                                   : 720 pixels
Display aspect ratio                     : 16:9
Frame rate mode                          : Constant
Frame rate                               : 23.976 (24000/1001) FPS
Color space                              : YUV
Chroma subsampling                       : 4:2:0
Bit depth                                : 8 bits
Scan type                                : Progressive
Bits/(Pixel*Frame)                       : 0.157
Stream size                              : 572 MiB (93%)
Writing library                          : x264 core 125 r2200 999b753
Encoding settings                        : cabac=1 / ref=9 / deblock=1:1:1 / analyse=0x3:0x133 / me=umh / subme=10 / psy=1 / psy_rd=0.40:0.00 / mixed_ref=1 / me_range=24 / chroma_me=1 / trellis=2 / 8x8dct=1 / cqm=0 / deadzone=21,11 / fast_pskip=1 / chroma_qp_offset=-2 / threads=18 / lookahead_threads=3 / sliced_threads=0 / nr=0 / decimate=1 / interlaced=0 / bluray_compat=0 / constrained_intra=0 / bframes=10 / b_pyramid=2 / b_adapt=2 / b_bias=0 / direct=3 / weightb=1 / open_gop=0 / weightp=2 / keyint=250 / keyint_min=23 / scenecut=40 / intra_refresh=0 / rc_lookahead=60 / rc=crf / mbtree=1 / crf=10.0 / qcomp=0.60 / qpmin=0 / qpmax=69 / qpstep=4 / ip_ratio=1.40 / aq=1:0.60
Encoded date                             : UTC 2020-02-13 19:32:14
Tagged date                              : UTC 2020-02-12 20:03:19
Codec configuration box                  : avcC

Audio
ID                                       : 2
Format                                   : AAC LC
Format/Info                              : Advanced Audio Codec Low Complexity
Codec ID                                 : mp4a-40-2
Duration                                 : 23 min 7 s
Bit rate mode                            : Variable
Bit rate                                 : 253 kb/s
Maximum bit rate                         : 260 kb/s
Channel(s)                               : 2 channels
Channel layout                           : L R
Sampling rate                            : 48.0 kHz
Frame rate                               : 46.875 FPS (1024 SPF)
Compression mode                         : Lossy
Stream size                              : 41.9 MiB (7%)
Title                                    : Imported with GPAC 0.4.6-DEV (internal rev. 5)
Encoded date                             : UTC 2020-02-12 20:03:18
Tagged date                              : UTC 2020-02-12 20:03:19
beta
Anime DDL+NZB mirror
Current Time: 01/04/2020 07:17



About/FAQs