File Size377.5 MB (395,882,346 bytes)
DownloadClickNUpload | Jheberg | MultiUp
  • BdUpload
  • DownAce
  • Fichier
  • FileCloud
  • Filerio
  • FilesCdn
  • IndiShare
  • Kbagi
  • Turbobit
  • UpToBox
  • Uppit
| OpenLoad | SolidFiles | ZippyShare
Sendspace: Part1, Part2
HashesCRC32: E41E7162, MD5: 34E5A001EB861B62F894FF9A4E43E9E6, SHA1: DA9C4687ACE945F1C311AE930373D320E9A6F085, SHA256: 3C04DCDD33F598D452C1C0A98F2BC57C1D209B229C33687FF6C216B70E20243E, ED2K: D6AE9381B3200BD8FB92E98C664A9E47
Screenshots
screenshotscreenshotscreenshotscreenshotscreenshot
Additional Info
General
Complete name                            : [BakedFish] Namu Amida Butsu!: Rendai Utena - 09 [720p][AAC].mp4
Format                                   : MPEG-4
Format profile                           : Base Media
Codec ID                                 : isom (isom)
File size                                : 378 MiB
Duration                                 : 24 min 25 s
Overall bit rate mode                    : Variable
Overall bit rate                         : 2 161 kb/s
Encoded date                             : UTC 2019-06-02 14:24:04
Tagged date                              : UTC 2019-06-02 14:24:04

Video
ID                                       : 1
Format                                   : AVC
Format/Info                              : Advanced Video Codec
Format profile                           : High@L4.1
Format settings                          : CABAC / 9 Ref Frames
Format settings, CABAC                   : Yes
Format settings, ReFrames                : 9 frames
Codec ID                                 : avc1
Codec ID/Info                            : Advanced Video Coding
Duration                                 : 24 min 25 s
Bit rate                                 : 2 000 kb/s
Maximum bit rate                         : 27.7 Mb/s
Width                                    : 1 280 pixels
Height                                   : 720 pixels
Display aspect ratio                     : 16:9
Frame rate mode                          : Constant
Frame rate                               : 23.976 (24000/1001) FPS
Color space                              : YUV
Chroma subsampling                       : 4:2:0
Bit depth                                : 8 bits
Scan type                                : Progressive
Bits/(Pixel*Frame)                       : 0.091
Stream size                              : 349 MiB (93%)
Writing library                          : x264 core 125 r2200 999b753
Encoding settings                        : cabac=1 / ref=9 / deblock=1:1:1 / analyse=0x3:0x133 / me=umh / subme=10 / psy=1 / psy_rd=0.40:0.00 / mixed_ref=1 / me_range=24 / chroma_me=1 / trellis=2 / 8x8dct=1 / cqm=0 / deadzone=21,11 / fast_pskip=1 / chroma_qp_offset=-2 / threads=18 / lookahead_threads=3 / sliced_threads=0 / nr=0 / decimate=1 / interlaced=0 / bluray_compat=0 / constrained_intra=0 / bframes=10 / b_pyramid=2 / b_adapt=2 / b_bias=0 / direct=3 / weightb=1 / open_gop=0 / weightp=2 / keyint=250 / keyint_min=23 / scenecut=40 / intra_refresh=0 / rc_lookahead=60 / rc=crf / mbtree=1 / crf=13.0 / qcomp=0.60 / qpmin=0 / qpmax=69 / qpstep=4 / ip_ratio=1.40 / aq=1:0.60
Encoded date                             : UTC 2019-06-03 13:55:40
Tagged date                              : UTC 2019-06-02 14:24:15
Codec configuration box                  : avcC

Audio
ID                                       : 2
Format                                   : AAC LC
Format/Info                              : Advanced Audio Codec Low Complexity
Codec ID                                 : mp4a-40-2
Duration                                 : 24 min 25 s
Bit rate mode                            : Variable
Bit rate                                 : 157 kb/s
Maximum bit rate                         : 164 kb/s
Channel(s)                               : 2 channels
Channel layout                           : L R
Sampling rate                            : 48.0 kHz
Frame rate                               : 46.875 FPS (1024 SPF)
Compression mode                         : Lossy
Stream size                              : 27.5 MiB (7%)
Title                                    : Imported with GPAC 0.4.6-DEV (internal rev. 5)
Encoded date                             : UTC 2019-06-02 14:24:12
Tagged date                              : UTC 2019-06-02 14:24:15

Other Files in this Torrent
[BakedFish] Namu Amida Butsu!: Rendai Utena - 09 [720p][AAC].mp4
beta
Anime DDL+NZB mirror
Current Time: 20/01/2020 03:23



About/FAQs