File Size411.0 MB (431,016,683 bytes)
DownloadClickNUpload | Jheberg | MultiUp
  • BdUpload
  • DownAce
  • Fichier
  • FileCloud
  • Filerio
  • FilesCdn
  • IndiShare
  • Kbagi
  • Turbobit
  • UpToBox
  • Uppit
| OpenLoad | SolidFiles | ZippyShare
Sendspace: Part1, Part2
HashesCRC32: 1A4BD7EC, MD5: 040E2387E496DBCF375085FEE94EE3A8, SHA1: 336D291997B712FA857CBFED30F562146B362AEC, SHA256: 39B8754F0B96D614C4D1B8D1277FCCF34B0F053C17E4127C9AFF124AD7DB302D, ED2K: 0C07F68D56F09A940AE11387F846D6E8
Screenshots
screenshotscreenshotscreenshotscreenshotscreenshot
Additional Info
General
Complete name                            : [BakedFish] Mix: Meisei Story - 09 [720p][AAC].mp4
Format                                   : MPEG-4
Format profile                           : Base Media
Codec ID                                 : isom (isom)
File size                                : 411 MiB
Duration                                 : 23 min 50 s
Overall bit rate mode                    : Variable
Overall bit rate                         : 2 411 kb/s
Encoded date                             : UTC 2019-05-31 12:08:45
Tagged date                              : UTC 2019-05-31 12:08:45

Video
ID                                       : 1
Format                                   : AVC
Format/Info                              : Advanced Video Codec
Format profile                           : High@L4.1
Format settings                          : CABAC / 9 Ref Frames
Format settings, CABAC                   : Yes
Format settings, ReFrames                : 9 frames
Codec ID                                 : avc1
Codec ID/Info                            : Advanced Video Coding
Duration                                 : 23 min 50 s
Bit rate                                 : 2 280 kb/s
Maximum bit rate                         : 38.7 Mb/s
Width                                    : 1 280 pixels
Height                                   : 720 pixels
Display aspect ratio                     : 16:9
Frame rate mode                          : Constant
Frame rate                               : 23.976 (24000/1001) FPS
Color space                              : YUV
Chroma subsampling                       : 4:2:0
Bit depth                                : 8 bits
Scan type                                : Progressive
Bits/(Pixel*Frame)                       : 0.103
Stream size                              : 389 MiB (95%)
Writing library                          : x264 core 125 r2200 999b753
Encoding settings                        : cabac=1 / ref=9 / deblock=1:1:1 / analyse=0x3:0x133 / me=umh / subme=10 / psy=1 / psy_rd=0.40:0.00 / mixed_ref=1 / me_range=24 / chroma_me=1 / trellis=2 / 8x8dct=1 / cqm=0 / deadzone=21,11 / fast_pskip=1 / chroma_qp_offset=-2 / threads=18 / lookahead_threads=3 / sliced_threads=0 / nr=0 / decimate=1 / interlaced=0 / bluray_compat=0 / constrained_intra=0 / bframes=10 / b_pyramid=2 / b_adapt=2 / b_bias=0 / direct=3 / weightb=1 / open_gop=0 / weightp=2 / keyint=250 / keyint_min=23 / scenecut=40 / intra_refresh=0 / rc_lookahead=60 / rc=crf / mbtree=1 / crf=11.0 / qcomp=0.60 / qpmin=0 / qpmax=69 / qpstep=4 / ip_ratio=1.40 / aq=1:0.60
Encoded date                             : UTC 2019-06-01 11:45:36
Tagged date                              : UTC 2019-05-31 12:08:46
Codec configuration box                  : avcC

Audio
ID                                       : 2
Format                                   : AAC LC
Format/Info                              : Advanced Audio Codec Low Complexity
Codec ID                                 : mp4a-40-2
Duration                                 : 23 min 50 s
Bit rate mode                            : Variable
Bit rate                                 : 128 kb/s
Maximum bit rate                         : 138 kb/s
Channel(s)                               : 2 channels
Channel layout                           : L R
Sampling rate                            : 44.1 kHz
Frame rate                               : 43.066 FPS (1024 SPF)
Compression mode                         : Lossy
Stream size                              : 21.8 MiB (5%)
Title                                    : Imported with GPAC 0.4.6-DEV (internal rev. 5)
Encoded date                             : UTC 2019-05-31 12:08:46
Tagged date                              : UTC 2019-05-31 12:08:46

Other Files in this Torrent
[BakedFish] Mix: Meisei Story - 09 [720p][AAC].mp4
beta
Anime DDL+NZB mirror
Current Time: 19/10/2019 18:39



About/FAQs