File Size334.7 MB (350,970,112 bytes)
DownloadClickNUpload | Jheberg | MultiUp
  • BdUpload
  • DownAce
  • Fichier
  • FileCloud
  • Filerio
  • FilesCdn
  • IndiShare
  • Kbagi
  • Turbobit
  • UpToBox
  • Uppit
| OpenLoad | SolidFiles | ZippyShare
Sendspace: Part1, Part2
HashesCRC32: 9E86146A, MD5: F3C3C8C51CD5F339865C0468FC3D8B75, SHA1: F130B81AF374EA9ABED56435B3B52620749DC569, SHA256: DD7BABE7B7022194408A9B08877483B9CEAF5247D5B318ECBB0751A4383A14C6, ED2K: EBA068E3382DADF9365D9736C0EECFEB
Screenshots
screenshotscreenshotscreenshotscreenshotscreenshot
Additional Info
General
Complete name                            : [BakedFish] Mayonaka no Occult Koumuin - 10 [720p][AAC].mp4
Format                                   : MPEG-4
Format profile                           : Base Media
Codec ID                                 : isom (isom)
File size                                : 335 MiB
Duration                                 : 23 min 35 s
Overall bit rate mode                    : Variable
Overall bit rate                         : 1 984 kb/s
Encoded date                             : UTC 2019-06-09 03:10:06
Tagged date                              : UTC 2019-06-09 03:10:06

Video
ID                                       : 1
Format                                   : AVC
Format/Info                              : Advanced Video Codec
Format profile                           : High@L4.1
Format settings                          : CABAC / 9 Ref Frames
Format settings, CABAC                   : Yes
Format settings, ReFrames                : 9 frames
Codec ID                                 : avc1
Codec ID/Info                            : Advanced Video Coding
Duration                                 : 23 min 35 s
Bit rate                                 : 1 852 kb/s
Maximum bit rate                         : 10.9 Mb/s
Width                                    : 1 280 pixels
Height                                   : 720 pixels
Display aspect ratio                     : 16:9
Frame rate mode                          : Constant
Frame rate                               : 23.976 (24000/1001) FPS
Color space                              : YUV
Chroma subsampling                       : 4:2:0
Bit depth                                : 8 bits
Scan type                                : Progressive
Bits/(Pixel*Frame)                       : 0.084
Stream size                              : 312 MiB (93%)
Writing library                          : x264 core 125 r2200 999b753
Encoding settings                        : cabac=1 / ref=9 / deblock=1:1:1 / analyse=0x3:0x133 / me=umh / subme=10 / psy=1 / psy_rd=0.40:0.00 / mixed_ref=1 / me_range=24 / chroma_me=1 / trellis=2 / 8x8dct=1 / cqm=0 / deadzone=21,11 / fast_pskip=1 / chroma_qp_offset=-2 / threads=18 / lookahead_threads=3 / sliced_threads=0 / nr=0 / decimate=1 / interlaced=0 / bluray_compat=0 / constrained_intra=0 / bframes=10 / b_pyramid=2 / b_adapt=2 / b_bias=0 / direct=3 / weightb=1 / open_gop=0 / weightp=2 / keyint=250 / keyint_min=23 / scenecut=40 / intra_refresh=0 / rc_lookahead=60 / rc=crf / mbtree=1 / crf=13.0 / qcomp=0.60 / qpmin=0 / qpmax=69 / qpstep=4 / ip_ratio=1.40 / aq=1:0.60
Encoded date                             : UTC 2019-06-10 02:48:36
Tagged date                              : UTC 2019-06-09 03:10:07
Codec configuration box                  : avcC

Audio
ID                                       : 2
Format                                   : AAC LC
Format/Info                              : Advanced Audio Codec Low Complexity
Codec ID                                 : mp4a-40-2
Duration                                 : 23 min 35 s
Bit rate mode                            : Variable
Bit rate                                 : 128 kb/s
Maximum bit rate                         : 139 kb/s
Channel(s)                               : 2 channels
Channel layout                           : L R
Sampling rate                            : 44.1 kHz
Frame rate                               : 43.066 FPS (1024 SPF)
Compression mode                         : Lossy
Stream size                              : 21.6 MiB (6%)
Title                                    : Imported with GPAC 0.4.6-DEV (internal rev. 5)
Encoded date                             : UTC 2019-06-09 03:10:07
Tagged date                              : UTC 2019-06-09 03:10:07

Other Files in this Torrent
[BakedFish] Mayonaka no Occult Koumuin - 10 [720p][AAC].mp4
beta
Anime DDL+NZB mirror
Current Time: 19/10/2019 13:51



About/FAQs