File Size315.5 MB (330,871,071 bytes)
DownloadClickNUpload | Go4Up | Jheberg | MultiUp
  • ClickNupload
  • Fichier
  • Filerio
  • Free
  • Fufox
  • HugeFiles
  • Mightyupload
  • ToutBox
  • Turbobit
  • UpToBox
  • Uplea
  • UploadBaz
  • Uploadable
  • Uploaded
  • Uppit
  • Userscloud
| OpenLoad | SolidFiles
Sendspace: Part1, Part2
HashesCRC32: 57EF78BC, MD5: 9D33430E9759C51D8E399E8CE345BD7D, SHA1: D42546754BB9EDA09BCED18007E35285D6142397, SHA256: 72172A5A59186BEF71A4AD1ED322D2FFB44D612C54DA7C0570E1E33C32BC6805, ED2K: FA2DE5D43FD460EB47F95F9E2FC25693
Screenshots
screenshotscreenshotscreenshotscreenshotscreenshot
Additional Info
General
Complete name                            : [BakedFish] Gundam Build Fighters: Battlogue - 02 [720p][AAC].mp4
Format                                   : MPEG-4
Format profile                           : Base Media
Codec ID                                 : isom (isom)
File size                                : 316 MiB
Duration                                 : 10 min 56 s
Overall bit rate mode                    : Variable
Overall bit rate                         : 4 031 kb/s
Encoded date                             : UTC 2017-09-10 13:52:13
Tagged date                              : UTC 2017-09-10 13:52:13

Video
ID                                       : 1
Format                                   : AVC
Format/Info                              : Advanced Video Codec
Format profile                           : High@L4.1
Format settings, CABAC                   : Yes
Format settings, ReFrames                : 9 frames
Codec ID                                 : avc1
Codec ID/Info                            : Advanced Video Coding
Duration                                 : 10 min 56 s
Bit rate                                 : 3 855 kb/s
Maximum bit rate                         : 29.5 Mb/s
Width                                    : 1 280 pixels
Height                                   : 720 pixels
Display aspect ratio                     : 16:9
Frame rate mode                          : Constant
Frame rate                               : 23.976 (24000/1001) FPS
Color space                              : YUV
Chroma subsampling                       : 4:2:0
Bit depth                                : 8 bits
Scan type                                : Progressive
Bits/(Pixel*Frame)                       : 0.174
Stream size                              : 302 MiB (96%)
Writing library                          : x264 core 79 r1342kMod e8501ef
Encoding settings                        : cabac=1 / ref=9 / deblock=1:1:1 / analyse=0x3:0x133 / me=umh / subme=10 / psy=1 / psy_rd=0.4:0.0 / mixed_ref=1 / me_range=24 / chroma_me=1 / trellis=2 / 8x8dct=1 / cqm=0 / deadzone=21,11 / chroma_qp_offset=-2 / threads=18 / nr=0 / decimate=1 / mbaff=0 / constrained_intra=0 / bframes=10 / b_pyramid=0 / b_adapt=2 / b_bias=0 / direct=3 / wpredb=1 / wpredp=2 / keyint=250 / keyint_min=25 / scenecut=40 / rc_lookahead=60 / rc=crf / mbtree=1 / crf=12.0000 / qcomp=0.60 / qpmin=10 / qpmax=51 / qpstep=4 / ip_ratio=1.40 / aq=1:0.60
Encoded date                             : UTC 2017-09-10 13:30:57
Tagged date                              : UTC 2017-09-10 13:52:15

Audio
ID                                       : 2
Format                                   : AAC
Format/Info                              : Advanced Audio Codec
Format profile                           : LC
Codec ID                                 : 40
Duration                                 : 10 min 56 s
Bit rate mode                            : Variable
Bit rate                                 : 172 kb/s
Maximum bit rate                         : 195 kb/s
Channel(s)                               : 2 channels
Channel positions                        : Front: L R
Sampling rate                            : 48.0 kHz
Frame rate                               : 46.875 FPS (1024 spf)
Compression mode                         : Lossy
Stream size                              : 13.5 MiB (4%)
Encoded date                             : UTC 2017-09-10 13:52:15
Tagged date                              : UTC 2017-09-10 13:52:15
beta
Anime DDL+NZB mirror
Current Time: 07/08/2020 13:08



About/FAQs