[babon-rip] Manaria Friends - 08 (English Dub) [HIDIVE VRV 1080p] [70F1981F].mkv


File Size253.2 MB (265,538,348 bytes)
DownloadClickNUpload | Jheberg | MultiUp
  • BdUpload
  • DownAce
  • Fichier
  • FileCloud
  • Filerio
  • FilesCdn
  • IndiShare
  • Kbagi
  • Solidfiles
  • Turbobit
  • UpToBox
  • Uppit
| OpenLoad | Sendspace | ZippyShare
HashesCRC32: 70F1981F, MD5: E8EEC7601FE5D9BEFFA1568E6DDD7491, SHA1: BE8FEBF9176D9466A8D5346D86D0A86580BBA8F8, SHA256: B047DBEE31B16260D397A135661E70408AA6967FF24948C7A7D2C53C6FFFBD31, ED2K: CDCBB2B6EBC2BCF4AC448FAE42D1C8AC
Screenshots
screenshotscreenshotscreenshotscreenshotscreenshot
SubtitlesAll Attachments | eng [ASS]
Additional Info
General
Unique ID                                : 259096984455861747539513664541909951663 (0xC2EC439B2A8A029C4451589CCBADA4AF)
Complete name                            : [babon-rip] Manaria Friends - 08 (English Dub) [HIDIVE VRV 1080p] [70F1981F].mkv
Format                                   : Matroska
Format version                           : Version 4
File size                                : 253 MiB
Duration                                 : 14 min 48 s
Overall bit rate                         : 2 390 kb/s
Encoded date                             : UTC 2019-05-22 15:40:05
Writing application                      : mkvmerge v33.1.0 ('Primrose') 64-bit
Writing library                          : libebml v1.3.7 + libmatroska v1.5.0

Video
ID                                       : 1
Format                                   : AVC
Format/Info                              : Advanced Video Codec
Format profile                           : High@L4
Format settings                          : CABAC / 4 Ref Frames
Format settings, CABAC                   : Yes
Format settings, ReFrames                : 4 frames
Codec ID                                 : V_MPEG4/ISO/AVC
Duration                                 : 14 min 48 s
Bit rate                                 : 2 260 kb/s
Width                                    : 1 920 pixels
Height                                   : 1 080 pixels
Display aspect ratio                     : 16:9
Frame rate mode                          : Constant
Frame rate                               : 23.976 (24000/1001) FPS
Color space                              : YUV
Chroma subsampling                       : 4:2:0
Bit depth                                : 8 bits
Scan type                                : Progressive
Bits/(Pixel*Frame)                       : 0.045
Stream size                              : 239 MiB (95%)
Writing library                          : x264 core 142
Encoding settings                        : cabac=1 / ref=4 / deblock=1:1:1 / analyse=0x3:0x113 / me=umh / subme=8 / psy=1 / psy_rd=0.40:0.00 / mixed_ref=1 / me_range=16 / chroma_me=1 / trellis=1 / 8x8dct=1 / cqm=0 / deadzone=21,11 / fast_pskip=1 / chroma_qp_offset=-2 / threads=12 / lookahead_threads=2 / sliced_threads=0 / nr=0 / decimate=1 / interlaced=0 / bluray_compat=0 / constrained_intra=0 / bframes=3 / b_pyramid=2 / b_adapt=2 / b_bias=0 / direct=3 / weightb=1 / open_gop=0 / weightp=2 / keyint=9999999 / keyint_min=5000000 / scenecut=0 / intra_refresh=0 / rc_lookahead=50 / rc=crf / mbtree=1 / crf=15.0 / qcomp=0.60 / qpmin=0 / qpmax=69 / qpstep=4 / vbv_maxrate=8000 / vbv_bufsize=12000 / crf_max=0.0 / nal_hrd=none / filler=0 / ip_ratio=1.40 / aq=1:0.60
Language                                 : Japanese
Default                                  : Yes
Forced                                   : No

Audio
ID                                       : 2
Format                                   : AAC LC
Format/Info                              : Advanced Audio Codec Low Complexity
Codec ID                                 : A_AAC-2
Duration                                 : 14 min 48 s
Bit rate                                 : 128 kb/s
Channel(s)                               : 2 channels
Channel layout                           : L R
Sampling rate                            : 44.1 kHz
Frame rate                               : 43.066 FPS (1024 SPF)
Compression mode                         : Lossy
Stream size                              : 13.6 MiB (5%)
Language                                 : English
Default                                  : Yes
Forced                                   : No

Text
ID                                       : 3
Format                                   : ASS
Codec ID                                 : S_TEXT/ASS
Codec ID/Info                            : Advanced Sub Station Alpha
Duration                                 : 10 min 34 s
Bit rate                                 : 2 b/s
Count of elements                        : 4
Compression mode                         : Lossless
Stream size                              : 163 Bytes (0%)
Language                                 : English
Default                                  : Yes
Forced                                   : No

Other Files in this Torrent
[babon-rip] Manaria Friends - 08 (English Dub) [HIDIVE VRV 1080p] [70F1981F].mkv
beta
Anime DDL+NZB mirror
Current Time: 30/11/2020 04:37



About/FAQs