[AWI] Doraemon (2005) - 344 (Doraemon Birthday Special) [720p] [H264] [F79F1DB8].mkv


File Size635.7 MB (666,606,000 bytes)
DownloadJheberg | MultiUp
AnonFiles: Part1, Part2
DevHost: Part1, Part2
Sendspace: Part1, Part2, Part3
ShareBeast: Part1, Part2, Part3, Part4
SolidFiles: Part1, Part2
HashesCRC32: F79F1DB8, MD5: 6088739587FEA3C5C0989F2A5C27F553, SHA1: 3DAF5C0B2DB8A43F42B76D5B89CDD24B075DDB8A, ED2K: FB37B4F23E8638980DE6DF9C7E114C63
Screenshots
screenshotscreenshotscreenshotscreenshotscreenshot
SubtitlesAll Attachments | und [ASS]
Additional Info
General
Unique ID                                : 211540894984885922923214784967624579838 (0x9F254B5E8B6DA344BB67FD1769275AFE)
Complete name                            : [AWI] Doraemon (2005) - 344 (Doraemon Birthday Special) [720p] [H264] [F79F1DB8].mkv
Format                                   : Matroska
Format version                           : Version 4 / Version 2
File size                                : 636 MiB
Duration                                 : 42mn 32s
Overall bit rate                         : 2 089 Kbps
Movie name                               : Subbed & Encoded by Anime World India (Animeworldindia.com)
Encoded date                             : UTC 2014-06-29 16:30:39
Writing application                      : mkvmerge v6.2.0 ('Promised Land') built on Apr 28 2013 12:22:01
Writing library                          : libebml v1.3.0 + libmatroska v1.4.0
Attachment                               : Yes / Yes / Yes / Yes / Yes / Yes / Yes / Yes / Yes

Video
ID                                       : 1
Format                                   : AVC
Format/Info                              : Advanced Video Codec
Format profile                           : High@L3.1
Format settings, CABAC                   : Yes
Format settings, ReFrames                : 4 frames
Codec ID                                 : V_MPEG4/ISO/AVC
Duration                                 : 42mn 32s
Bit rate                                 : 1 919 Kbps
Width                                    : 1 280 pixels
Height                                   : 720 pixels
Display aspect ratio                     : 16:9
Frame rate mode                          : Constant
Frame rate                               : 23.976 fps
Color space                              : YUV
Chroma subsampling                       : 4:2:0
Bit depth                                : 8 bits
Scan type                                : Progressive
Bits/(Pixel*Frame)                       : 0.087
Stream size                              : 584 MiB (92%)
Title                                    : H264
Writing library                          : x264 core 138 r2358 9e941d1
Encoding settings                        : cabac=1 / ref=4 / deblock=1:1:1 / analyse=0x3:0x133 / me=umh / subme=7 / psy=1 / psy_rd=0.40:0.00 / mixed_ref=1 / me_range=16 / chroma_me=1 / trellis=2 / 8x8dct=1 / cqm=0 / deadzone=21,11 / fast_pskip=1 / chroma_qp_offset=-2 / threads=18 / lookahead_threads=3 / sliced_threads=0 / nr=0 / decimate=1 / interlaced=0 / bluray_compat=0 / constrained_intra=0 / bframes=5 / b_pyramid=0 / b_adapt=1 / b_bias=0 / direct=3 / weightb=1 / open_gop=0 / weightp=1 / keyint=240 / keyint_min=23 / scenecut=40 / intra_refresh=0 / rc_lookahead=30 / rc=crf / mbtree=1 / crf=18.0 / qcomp=0.60 / qpmin=10 / qpmax=51 / qpstep=4 / ip_ratio=1.40 / aq=1:0.60
Language                                 : Japanese
Default                                  : Yes
Forced                                   : No

Audio
ID                                       : 2
Format                                   : AC-3
Format/Info                              : Audio Coding 3
Mode extension                           : CM (complete main)
Format settings, Endianness              : Big
Codec ID                                 : A_AC3
Duration                                 : 42mn 32s
Bit rate mode                            : Constant
Bit rate                                 : 128 Kbps
Channel(s)                               : 2 channels
Channel positions                        : Front: L R
Sampling rate                            : 48.0 KHz
Bit depth                                : 16 bits
Compression mode                         : Lossy
Stream size                              : 39.0 MiB (6%)
Default                                  : Yes
Forced                                   : No

Text
ID                                       : 3
Format                                   : ASS
Codec ID                                 : S_TEXT/ASS
Codec ID/Info                            : Advanced Sub Station Alpha
Compression mode                         : Lossless
Default                                  : Yes
Forced                                   : No
beta
Anime DDL+NZB mirror
Current Time: 13/06/2024 07:12



About/FAQs

Discord