[ATS] Shaman King (2021) - 11 (1080P) - Two Men.mp4


File Size254.1 MB (266,420,466 bytes)
DownloadAnonFiles | ClickNUpload | DropAPK | MultiUp
  • BdUpload
  • DownAce
  • Fichier
  • FileCloud
  • Filerio
  • FilesCdn
  • IndiShare
  • Kbagi
  • Turbobit
  • UpToBox
  • Uppit
| SolidFiles | ZippyShare
HashesCRC32: C825D61E, MD5: 71C15F19328D0C0C75C76E0211D85277, SHA1: A5589FBE566E4A394FB596C351C09215B316F7C6, SHA256: D4BB16C3C8DE4356227E9659559BABDDC0964826269562E27786DFDBD598767E, ED2K: B8906949AECCE2D24D7F6F3F033FEC2B
Screenshots
screenshotscreenshotscreenshotscreenshotscreenshot
Additional Info
General
Complete name                            : [ATS] Shaman King (2021) - 11 (1080P) - Two Men.mp4
Format                                   : MPEG-4
Format profile                           : Base Media / Version 2
Codec ID                                 : mp42 (isom/iso2/avc1/mp41)
File size                                : 254 MiB
Duration                                 : 23 min 52 s
Overall bit rate                         : 1 488 kb/s
Encoded date                             : UTC 2021-06-10 17:22:03
Tagged date                              : UTC 2021-06-10 17:22:03
Writing application                      : HandBrake 1.3.3 2020061300

Video
ID                                       : 1
Format                                   : AVC
Format/Info                              : Advanced Video Codec
Format profile                           : Main@L4
Format settings                          : CABAC / 4 Ref Frames
Format settings, CABAC                   : Yes
Format settings, ReFrames                : 4 frames
Codec ID                                 : avc1
Codec ID/Info                            : Advanced Video Coding
Duration                                 : 23 min 52 s
Bit rate                                 : 1 322 kb/s
Width                                    : 1 920 pixels
Height                                   : 1 080 pixels
Display aspect ratio                     : 16:9
Frame rate mode                          : Variable
Frame rate                               : 23.976 (24000/1001) FPS
Minimum frame rate                       : 23.974 FPS
Maximum frame rate                       : 23.981 FPS
Color space                              : YUV
Chroma subsampling                       : 4:2:0
Bit depth                                : 8 bits
Scan type                                : Progressive
Bits/(Pixel*Frame)                       : 0.027
Stream size                              : 226 MiB (89%)
Writing library                          : x264 core 157 r2935 545de2f
Encoding settings                        : cabac=1 / ref=1 / deblock=1:0:0 / analyse=0x1:0x111 / me=hex / subme=2 / psy=1 / psy_rd=1.00:0.00 / mixed_ref=0 / me_range=16 / chroma_me=1 / trellis=0 / 8x8dct=0 / cqm=0 / deadzone=21,11 / fast_pskip=1 / chroma_qp_offset=0 / threads=6 / lookahead_threads=2 / sliced_threads=0 / nr=0 / decimate=1 / interlaced=0 / bluray_compat=0 / constrained_intra=0 / bframes=3 / b_pyramid=2 / b_adapt=1 / b_bias=0 / direct=1 / weightb=1 / open_gop=0 / weightp=1 / keyint=240 / keyint_min=24 / scenecut=40 / intra_refresh=0 / rc_lookahead=10 / rc=crf / mbtree=1 / crf=24.0 / qcomp=0.60 / qpmin=0 / qpmax=69 / qpstep=4 / vbv_maxrate=20000 / vbv_bufsize=25000 / crf_max=0.0 / nal_hrd=none / filler=0 / ip_ratio=1.40 / aq=1:1.00
Encoded date                             : UTC 2021-06-10 17:22:03
Tagged date                              : UTC 2021-06-10 17:22:03
Color range                              : Limited
Color primaries                          : BT.709
Transfer characteristics                 : BT.709
Matrix coefficients                      : BT.709
Menus                                    : 3
Codec configuration box                  : avcC

Audio
ID                                       : 2
Format                                   : AAC LC
Format/Info                              : Advanced Audio Codec Low Complexity
Codec ID                                 : mp4a-40-2
Duration                                 : 23 min 52 s
Bit rate mode                            : Constant
Bit rate                                 : 160 kb/s
Channel(s)                               : 2 channels
Channel layout                           : L R
Sampling rate                            : 48.0 kHz
Frame rate                               : 46.875 FPS (1024 SPF)
Compression mode                         : Lossy
Stream size                              : 27.4 MiB (11%)
Title                                    : Stereo
Language                                 : Japanese
Default                                  : Yes
Alternate group                          : 1
Encoded date                             : UTC 2021-06-10 17:22:03
Tagged date                              : UTC 2021-06-10 17:22:03
Menus                                    : 3

Menu
ID                                       : 3
Codec ID                                 : text
Duration                                 : 23 min 52 s
Language                                 : English
Encoded date                             : UTC 2021-06-10 17:22:03
Tagged date                              : UTC 2021-06-10 17:22:03
Menu For                                 : 1,2
Duration_FirstFrame                      : -1121078
Duration_LastFrame                       : -1134091
00:00:00.000                             : Intro start
00:01:47.983                             : Intro end
00:22:17.044                             : Credits
Bit rate mode                            : VBR
beta
Anime DDL+NZB mirror
Current Time: 26/07/2021 22:59



About/FAQs