File Size275.9 MB (289,296,779 bytes)
DownloadClickNUpload | Go4Up
  • Ezfile
  • FileFactory
  • FilePup
  • MegaShares
  • Nitroflare
  • NowDownload
  • Oboom
  • OpenLoad
  • Rapidgator
  • Share-Online
  • ToutBox
  • Uplea
  • Uploadable
  • Uppit
  • UsersCloud
| Jheberg | MultiUp | OpenLoad | Sendspace | SolidFiles | Upfile.mobi
HashesCRC32: 237246D9, MD5: A1EDFEA109D8301A0A886C2866FE2A50, SHA1: BE87A064B203054319230859C19D6F40E7FD199B, SHA256: 8175871E2F33E1C3BE55E625F1A3B75F2E8109BDBD87D70404B1EBE6B33F456F, ED2K: 8CBF6DEDA80B656991BDD4B59648D3D6
Screenshots
screenshotscreenshotscreenshotscreenshotscreenshot
SubtitlesAll Attachments | eng [ASS]
Additional Info
General
Unique ID                                : 250519416532436747213500618678147280593 (0xBC7848DB38301DE9A5C3A8BA45F8EED1)
Complete name                            : [Asenshi] Yuru Camp - 01 [237246D9].mkv
Format                                   : Matroska
Format version                           : Version 4 / Version 2
File size                                : 276 MiB
Duration                                 : 23 min 39 s
Overall bit rate                         : 1 630 kb/s
Encoded date                             : UTC 2018-01-05 22:39:19
Writing application                      : mkvmerge v18.0.0 ('Apricity') 64-bit
Writing library                          : libebml v1.3.5 + libmatroska v1.4.8
Attachments                              : Eager_Naturalist.ttf / EMILY_H.ttf / erasdus0.ttf / FOT-ChiaroStd-B-EN.otf / FOT-HummingStdEn-B.OTF / FOTKafuNagomiStdStripped-Bold.otf / FOT-SeuratPro-EB 1.otf / IwaOMinPro-Hd-Fate.ttf / Lato-Lig.ttf / segoeuil.ttf / segoeuisl.ttf / Birdie.ttf / black_jack.ttf / BurstMyBubble.ttf / Cabin-Bold.otf / Cabin-BoldItalic.otf / Cabin-Regular.otf / CronosPro-Semibold.ttf

Video
ID                                       : 1
Format                                   : AVC
Format/Info                              : Advanced Video Codec
Format profile                           : High 4:4:4 Predictive@L5
Format settings, CABAC                   : Yes
Format settings, ReFrames                : 16 frames
Codec ID                                 : V_MPEG4/ISO/AVC
Duration                                 : 23 min 39 s
Bit rate                                 : 1 302 kb/s
Width                                    : 1 280 pixels
Height                                   : 720 pixels
Display aspect ratio                     : 16:9
Frame rate mode                          : Constant
Frame rate                               : 23.976 (24000/1001) FPS
Color space                              : YUV
Chroma subsampling                       : 4:4:4
Bit depth                                : 10 bits
Scan type                                : Progressive
Bits/(Pixel*Frame)                       : 0.059
Stream size                              : 220 MiB (80%)
Writing library                          : x264 core 148 r2762+56 7979737 t_mod_Custom [10-bit@all X86_64]
Encoding settings                        : cabac=1 / ref=16 / deblock=1:0:0 / analyse=0x3:0x133 / me=umh / subme=10 / psy=1 / fade_compensate=0.80 / psy_rd=0.80:0.00 / mixed_ref=1 / me_range=24 / chroma_me=1 / trellis=2 / 8x8dct=1 / cqm=0 / deadzone=21,11 / fast_pskip=1 / chroma_qp_offset=4 / threads=12 / lookahead_threads=3 / sliced_threads=0 / nr=0 / decimate=1 / interlaced=0 / bluray_compat=0 / constrained_intra=0 / fgo=0 / bframes=16 / b_pyramid=2 / b_adapt=2 / b_bias=0 / direct=3 / weightb=1 / open_gop=0 / weightp=2 / keyint=250 / keyint_min=23 / scenecut=40 / intra_refresh=0 / rc_lookahead=60 / rc=crf / mbtree=1 / crf=16.0000 / qcomp=0.65 / qpmin=0:0:0 / qpmax=81:81:81 / qpstep=4 / ip_ratio=1.40 / aq=3:0.80 / aq-sensitivity=10.00 / aq-factor=1.00:1.00:1.00 / aq2=0 / aq3=0
Language                                 : English
Default                                  : Yes
Forced                                   : No
Color range                              : Limited
Matrix coefficients                      : BT.709

Audio
ID                                       : 2
Format                                   : AAC
Format/Info                              : Advanced Audio Codec
Format profile                           : LC
Codec ID                                 : A_AAC
Duration                                 : 23 min 39 s
Bit rate                                 : 252 kb/s
Channel(s)                               : 2 channels
Channel positions                        : Front: L R
Sampling rate                            : 48.0 kHz
Frame rate                               : 46.875 FPS (1024 spf)
Compression mode                         : Lossy
Stream size                              : 42.7 MiB (15%)
Language                                 : Japanese
Default                                  : Yes
Forced                                   : No

Text
ID                                       : 3
Format                                   : ASS
Codec ID                                 : S_TEXT/ASS
Codec ID/Info                            : Advanced Sub Station Alpha
Duration                                 : 23 min 37 s
Bit rate                                 : 714 b/s
Count of elements                        : 969
Compression mode                         : Lossless
Stream size                              : 124 KiB (0%)
Language                                 : English
Default                                  : Yes
Forced                                   : No

Menu
00:00:00.000                             : :Intro
00:01:01.895                             : :Opening
00:02:31.943                             : :Episode
00:22:38.941                             : :Room Camp
00:23:24.862                             : :Preview
beta
Anime DDL+NZB mirror
Current Time: 18/09/2021 05:40



About/FAQs