File Size934.5 MB (979,899,023 bytes)
DownloadClickNUpload | Jheberg | OpenLoad
MultiUp: Part1
  • BdUpload
  • DownAce
  • Fichier
  • FileCloud
  • Filerio
  • FilesCdn
  • IndiShare
  • Kbagi
  • Turbobit
  • UpToBox
  • Uppit
, Part2
  • BdUpload
  • DownAce
  • Fichier
  • FileCloud
  • Filerio
  • FilesCdn
  • IndiShare
  • Kbagi
  • Turbobit
  • UpToBox
  • Uppit

Sendspace: Part1, Part2, Part3, Part4
SolidFiles: Part1, Part2
ZippyShare: Part1, Part2
HashesCRC32: F41D225F, MD5: 431C5C4E62BA707F7CAD6A62233455EB, SHA1: 9603140E4D312D2647673C6B0E38AD83B2F31CA2, SHA256: 165BD5974007970AD4D2536DB56E8C41A035C9E17B4F33A85BB57EBA1F2A6250, ED2K: FB46E452C3D20CFD70FDDE3889C09576
Screenshots
screenshotscreenshotscreenshotscreenshotscreenshot
SubtitlesAll Attachments | und [ASS]
Additional Info
General
Unique ID                                : 73582357215635919786847796155902766222 (0x375B724EBE256A8059FADF933EEEAC8E)
Complete name                            : [Asenshi] Sarazanmai - 11 [F41D225F].mkv
Format                                   : Matroska
Format version                           : Version 4
File size                                : 935 MiB
Duration                                 : 22 min 55 s
Overall bit rate                         : 5 699 kb/s
Encoded date                             : UTC 2019-06-21 23:58:47
Writing application                      : mkvmerge v29.0.0 ('Like It Or Not') 64-bit
Writing library                          : libebml v1.3.6 + libmatroska v1.4.9
Attachments                              : DID.TTF / FromWhereYouAre.ttf / IwaMinPro-Md-Kami.ttf / IwaOMinPro-Bd-Fate.ttf / Lato-Black.ttf / Lato-Bold.ttf / Lato-Heavy.ttf / Lato-Light.ttf / Lazer84.ttf / Library 3 am.otf / LLPIXEL3.ttf / PAINP.TTF / Radical Brush DEMO.otf / TWINPINES.TTF / albatross.ttf / BRUSHSTROKE-REGULAR.TTF / CARTOON.TTF / Corinthian Medium.ttf / CrayonHandRegular2016Demo.ttf / D3_Factorism_Alphabet_square.ttf

Video
ID                                       : 1
Format                                   : AVC
Format/Info                              : Advanced Video Codec
Format profile                           : High 10@L5.1
Format settings                          : CABAC / 16 Ref Frames
Format settings, CABAC                   : Yes
Format settings, ReFrames                : 16 frames
Codec ID                                 : V_MPEG4/ISO/AVC
Duration                                 : 22 min 54 s
Bit rate                                 : 5 406 kb/s
Width                                    : 1 920 pixels
Height                                   : 1 080 pixels
Display aspect ratio                     : 16:9
Frame rate mode                          : Constant
Frame rate                               : 23.976 (24000/1001) FPS
Color space                              : YUV
Chroma subsampling                       : 4:2:0
Bit depth                                : 10 bits
Scan type                                : Progressive
Bits/(Pixel*Frame)                       : 0.109
Stream size                              : 886 MiB (95%)
Writing library                          : x264 core 155 r2867+74 66b5600 t_mod_Custom_2 [10-bit@all X86_64]
Encoding settings                        : cabac=1 / ref=16 / deblock=1:-1:-1 / analyse=0x3:0x133 / me=umh / subme=10 / psy=1 / fade_compensate=0.80 / psy_rd=0.92:0.00 / mixed_ref=1 / me_range=24 / chroma_me=1 / trellis=2 / 8x8dct=1 / cqm=0 / deadzone=21,11 / fast_pskip=1 / chroma_qp_offset=-2 / threads=12 / lookahead_threads=3 / sliced_threads=0 / nr=0 / decimate=1 / interlaced=0 / bluray_compat=0 / constrained_intra=0 / fgo=0 / bframes=16 / b_pyramid=2 / b_adapt=2 / b_bias=0 / direct=3 / weightb=1 / open_gop=0 / weightp=2 / keyint=250 / keyint_min=23 / scenecut=40 / intra_refresh=0 / rc_lookahead=60 / rc=crf / mbtree=1 / crf=15.7000 / qcomp=0.65 / qpmin=0:0:0 / qpmax=81:81:81 / qpstep=4 / ip_ratio=1.40 / aq=3:0.80 / aq-sensitivity=10.00 / aq-factor=1.00:1.00:1.00 / aq2=0 / aq3=0
Language                                 : English
Default                                  : Yes
Forced                                   : No
Color range                              : Limited
Matrix coefficients                      : BT.709

Audio
ID                                       : 2
Format                                   : AAC LC
Format/Info                              : Advanced Audio Codec Low Complexity
Codec ID                                 : A_AAC-2
Duration                                 : 22 min 55 s
Bit rate                                 : 256 kb/s
Channel(s)                               : 2 channels
Channel layout                           : L R
Sampling rate                            : 48.0 kHz
Frame rate                               : 46.875 FPS (1024 SPF)
Compression mode                         : Lossy
Stream size                              : 42.0 MiB (4%)
Language                                 : Japanese
Default                                  : Yes
Forced                                   : No

Text
ID                                       : 3
Format                                   : ASS
Codec ID                                 : S_TEXT/ASS
Codec ID/Info                            : Advanced Sub Station Alpha
Duration                                 : 22 min 50 s
Bit rate                                 : 3 979 b/s
Count of elements                        : 3529
Compression mode                         : Lossless
Stream size                              : 666 KiB (0%)
Default                                  : Yes
Forced                                   : No

Menu
00:00:00.000                             : :Intro
00:01:13.991                             : :Part A
00:06:34.978                             : :Part B
00:16:54.013                             : :Epilogue
beta
Anime DDL+NZB mirror
Current Time: 06/04/2020 16:09



About/FAQs