File Size797.2 MB (835,905,953 bytes)
DownloadClickNUpload | Jheberg | OpenLoad
MultiUp: Part1
  • BdUpload
  • DownAce
  • Fichier
  • FileCloud
  • Filerio
  • FilesCdn
  • IndiShare
  • Kbagi
  • Turbobit
  • UpToBox
  • Uppit
, Part2
  • BdUpload
  • DownAce
  • Fichier
  • FileCloud
  • Filerio
  • FilesCdn
  • IndiShare
  • Kbagi
  • Turbobit
  • UpToBox
  • Uppit

Sendspace: Part1, Part2, Part3
SolidFiles: Part1, Part2
ZippyShare: Part1, Part2
HashesCRC32: 01DF0629, MD5: B867408C89F0DFB1437653EE5A7ACD10, SHA1: 0C0A0D8A063E251BEF4C28E5572961037E2F4CA7, SHA256: A9E49360D997921E6DBC87DC9CD80E5EC99B06CC5A9ECB84D497714BBD316B4A, ED2K: 16A3262653E28424521A2CFD3F6B397A
Screenshots
screenshotscreenshotscreenshotscreenshotscreenshot
SubtitlesAll Attachments | und [ASS]
Additional Info
General
Unique ID                                : 113359846193803344193476043043326756181 (0x55484FEE258340C60BD61674F3AD8555)
Complete name                            : [Asenshi] Sarazanmai - 09 [01DF0629].mkv
Format                                   : Matroska
Format version                           : Version 4
File size                                : 797 MiB
Duration                                 : 22 min 55 s
Overall bit rate                         : 4 861 kb/s
Encoded date                             : UTC 2019-06-09 18:36:53
Writing application                      : mkvmerge v29.0.0 ('Like It Or Not') 64-bit
Writing library                          : libebml v1.3.6 + libmatroska v1.4.9
Attachments                              : LAURENCBROWN.TTF / Library 3 am.otf / LLPIXEL3.ttf / MarshyKate.ttf / medra_.ttf / Neat Chalk.ttf / PENCILPETEFONT.OTF / PermanentMarker.ttf / Sub-Alegreya-Bold.otf / ARR_.TTF / AYearWithoutRain.ttf / BabyDoll.ttf / Brush Strokes.ttf / BRUSHSTROKE-REGULAR.TTF / Corinthian Medium.ttf / D3_Factorism_Alphabet_square.ttf / DID.TTF / FromWhereYouAre.ttf / IwaOMinPro-Bd-Fate.ttf / Kindson.ttf / KurokaneStd-EB-Str.otf / Lato-Black.ttf / Lato-BlackItalic.ttf / Lato-Bold.ttf / Lato-BoldItalic.ttf / Lato-Heavy.ttf / Lato-Light.ttf

Video
ID                                       : 1
Format                                   : AVC
Format/Info                              : Advanced Video Codec
Format profile                           : High 10@L5.1
Format settings                          : CABAC / 16 Ref Frames
Format settings, CABAC                   : Yes
Format settings, ReFrames                : 16 frames
Codec ID                                 : V_MPEG4/ISO/AVC
Duration                                 : 22 min 54 s
Bit rate                                 : 4 562 kb/s
Width                                    : 1 920 pixels
Height                                   : 1 080 pixels
Display aspect ratio                     : 16:9
Frame rate mode                          : Constant
Frame rate                               : 23.976 (24000/1001) FPS
Color space                              : YUV
Chroma subsampling                       : 4:2:0
Bit depth                                : 10 bits
Scan type                                : Progressive
Bits/(Pixel*Frame)                       : 0.092
Stream size                              : 748 MiB (94%)
Writing library                          : x264 core 155 r2867+74 66b5600 t_mod_Custom_2 [10-bit@all X86_64]
Encoding settings                        : cabac=1 / ref=16 / deblock=1:-1:-1 / analyse=0x3:0x133 / me=umh / subme=10 / psy=1 / fade_compensate=0.80 / psy_rd=0.92:0.00 / mixed_ref=1 / me_range=24 / chroma_me=1 / trellis=2 / 8x8dct=1 / cqm=0 / deadzone=21,11 / fast_pskip=1 / chroma_qp_offset=-2 / threads=12 / lookahead_threads=3 / sliced_threads=0 / nr=0 / decimate=1 / interlaced=0 / bluray_compat=0 / constrained_intra=0 / fgo=0 / bframes=16 / b_pyramid=2 / b_adapt=2 / b_bias=0 / direct=3 / weightb=1 / open_gop=0 / weightp=2 / keyint=250 / keyint_min=23 / scenecut=40 / intra_refresh=0 / rc_lookahead=60 / rc=crf / mbtree=1 / crf=15.7000 / qcomp=0.65 / qpmin=0:0:0 / qpmax=81:81:81 / qpstep=4 / ip_ratio=1.40 / aq=3:0.80 / aq-sensitivity=10.00 / aq-factor=1.00:1.00:1.00 / aq2=0 / aq3=0
Language                                 : English
Default                                  : Yes
Forced                                   : No
Color range                              : Limited
Matrix coefficients                      : BT.709

Audio
ID                                       : 2
Format                                   : AAC LC
Format/Info                              : Advanced Audio Codec Low Complexity
Codec ID                                 : A_AAC-2
Duration                                 : 22 min 55 s
Bit rate                                 : 256 kb/s
Channel(s)                               : 2 channels
Channel layout                           : L R
Sampling rate                            : 48.0 kHz
Frame rate                               : 46.875 FPS (1024 SPF)
Compression mode                         : Lossy
Stream size                              : 42.0 MiB (5%)
Language                                 : Japanese
Default                                  : Yes
Forced                                   : No

Text
ID                                       : 3
Format                                   : ASS
Codec ID                                 : S_TEXT/ASS
Codec ID/Info                            : Advanced Sub Station Alpha
Duration                                 : 22 min 50 s
Bit rate                                 : 7 099 b/s
Count of elements                        : 5283
Compression mode                         : Lossless
Stream size                              : 1.16 MiB (0%)
Default                                  : Yes
Forced                                   : No

Menu
00:00:00.000                             : :Intro
00:01:00.978                             : :OP
00:02:31.026                             : :Part A
00:11:07.000                             : :Part B
00:18:08.004                             : :ED
00:19:42.973                             : :Part C
beta
Anime DDL+NZB mirror
Current Time: 27/10/2020 06:20



About/FAQs