File Size756.6 MB (793,392,214 bytes)
DownloadClickNUpload | Jheberg | OpenLoad
MultiUp: Part1
  • BdUpload
  • DownAce
  • Fichier
  • FileCloud
  • Filerio
  • FilesCdn
  • IndiShare
  • Kbagi
  • Solidfiles
  • Turbobit
  • UpToBox
  • Uppit
, Part2
  • BdUpload
  • DownAce
  • Fichier
  • FileCloud
  • Filerio
  • FilesCdn
  • IndiShare
  • Kbagi
  • Solidfiles
  • Turbobit
  • UpToBox
  • Uppit

Sendspace: Part1, Part2, Part3
ZippyShare: Part1, Part2
HashesCRC32: 92AE47A5, MD5: 3CE19A65775768A436D4312222486201, SHA1: 69F8173CF472E5E9675964513C52E60DC8CEEDC7, SHA256: 24AF423D4C912ECFFB6A7DCF6426576F981E7DE181DB934BE1CF74A438D53F2A, ED2K: 7F8B2319D9759A754CD70CBB3941F133
Screenshots
screenshotscreenshotscreenshotscreenshotscreenshot
SubtitlesAll Attachments | und [ASS]
Additional Info
General
Unique ID                                : 80909224427315604353425731449896100736 (0x3CDE8CC05C014FB70D589F88A628E380)
Complete name                            : [Asenshi] Sarazanmai - 08 [92AE47A5].mkv
Format                                   : Matroska
Format version                           : Version 4
File size                                : 757 MiB
Duration                                 : 22 min 55 s
Overall bit rate                         : 4 614 kb/s
Encoded date                             : UTC 2019-05-31 23:48:32
Writing application                      : mkvmerge v29.0.0 ('Like It Or Not') 64-bit
Writing library                          : libebml v1.3.6 + libmatroska v1.4.9
Attachments                              : Dirty Headline.ttf / FOT-KakureiStd-EB.otf / FromWhereYouAre.ttf / GANDHISANS-BOLD.OTF / IwaOMinPro-Bd-Fate.ttf / IwaOMinPro-Hd-Fate.ttf / KurokaneStd-EB-Str.otf / Lato-Black.ttf / Lato-BlackItalic.ttf / Lato-Bold.ttf / Lato-BoldItalic.ttf / Lato-Heavy.ttf / Lato-Light.ttf / Library 3 am.otf / medra_.ttf / olivier_demo.ttf / Psychedelic.ttf / ROCKOULTRAFLF.TTF / SERIO_.TTF / BlackMetalSans.ttf / BLOCKPARTY.TTF / Brush Strokes.ttf / BRUSHSTROKE-REGULAR.TTF / calibrib.ttf / Corinthian Medium.ttf / D3_Factorism_Alphabet_square.ttf

Video
ID                                       : 1
Format                                   : AVC
Format/Info                              : Advanced Video Codec
Format profile                           : High 10@L5.1
Format settings                          : CABAC / 16 Ref Frames
Format settings, CABAC                   : Yes
Format settings, ReFrames                : 16 frames
Codec ID                                 : V_MPEG4/ISO/AVC
Duration                                 : 22 min 55 s
Bit rate                                 : 4 274 kb/s
Width                                    : 1 920 pixels
Height                                   : 1 080 pixels
Display aspect ratio                     : 16:9
Frame rate mode                          : Constant
Frame rate                               : 23.976 (24000/1001) FPS
Color space                              : YUV
Chroma subsampling                       : 4:2:0
Bit depth                                : 10 bits
Scan type                                : Progressive
Bits/(Pixel*Frame)                       : 0.086
Stream size                              : 701 MiB (93%)
Writing library                          : x264 core 155 r2867+74 66b5600 t_mod_Custom_2 [10-bit@all X86_64]
Encoding settings                        : cabac=1 / ref=16 / deblock=1:-1:-1 / analyse=0x3:0x133 / me=umh / subme=10 / psy=1 / fade_compensate=0.80 / psy_rd=0.92:0.00 / mixed_ref=1 / me_range=24 / chroma_me=1 / trellis=2 / 8x8dct=1 / cqm=0 / deadzone=21,11 / fast_pskip=1 / chroma_qp_offset=-2 / threads=12 / lookahead_threads=3 / sliced_threads=0 / nr=0 / decimate=1 / interlaced=0 / bluray_compat=0 / constrained_intra=0 / fgo=0 / bframes=16 / b_pyramid=2 / b_adapt=2 / b_bias=0 / direct=3 / weightb=1 / open_gop=0 / weightp=2 / keyint=250 / keyint_min=23 / scenecut=40 / intra_refresh=0 / rc_lookahead=60 / rc=crf / mbtree=1 / crf=15.7000 / qcomp=0.65 / qpmin=0:0:0 / qpmax=81:81:81 / qpstep=4 / ip_ratio=1.40 / aq=3:0.80 / aq-sensitivity=10.00 / aq-factor=1.00:1.00:1.00 / aq2=0 / aq3=0
Language                                 : English
Default                                  : Yes
Forced                                   : No
Color range                              : Limited
Matrix coefficients                      : BT.709

Audio
ID                                       : 2
Format                                   : AAC LC
Format/Info                              : Advanced Audio Codec Low Complexity
Codec ID                                 : A_AAC-2
Duration                                 : 22 min 55 s
Bit rate                                 : 256 kb/s
Channel(s)                               : 2 channels
Channel layout                           : L R
Sampling rate                            : 48.0 kHz
Frame rate                               : 46.875 FPS (1024 SPF)
Compression mode                         : Lossy
Stream size                              : 42.0 MiB (6%)
Language                                 : Japanese
Default                                  : Yes
Forced                                   : No

Text
ID                                       : 3
Format                                   : ASS
Codec ID                                 : S_TEXT/ASS
Codec ID/Info                            : Advanced Sub Station Alpha
Duration                                 : 22 min 50 s
Bit rate                                 : 2 661 b/s
Count of elements                        : 1999
Compression mode                         : Lossless
Stream size                              : 445 KiB (0%)
Default                                  : Yes
Forced                                   : No

Menu
00:00:00.000                             : :Intro
00:02:18.013                             : :OP
00:03:48.019                             : :Part A
00:12:44.055                             : :Part B
00:20:27.059                             : :ED
00:22:02.112                             : :Part C
beta
Anime DDL+NZB mirror
Current Time: 06/12/2019 20:42



About/FAQs