[Asenshi-GJM-PAS] SSSS.GRIDMAN - 06 [98163B2F].mkv


File Size309.4 MB (324,409,084 bytes)
DownloadClickNUpload | Go4Up | Jheberg | MultiUp | OpenLoad | SolidFiles | ZippyShare
Sendspace: Part1, Part2
Encrypted DownloadDirect
Password:
HashesCRC32: 98163B2F, MD5: 5CA9A304E3CC4F6970AB6FCAC7C9302C, SHA1: BE3358C649F487623B43E5C824FDBF03AB3B05B8, SHA256: 8E58C8CDB9EF876AD52F04B069AE81429E3BF385E6BA81432FBA8FE52143E961, ED2K: 479759E13A1158708B09BB949FBE1B80
Screenshots
screenshotscreenshotscreenshotscreenshotscreenshot
SubtitlesAll Attachments | No Honorifics [eng, ASS], Honorifics [enm, ASS]
Additional Info
General
Unique ID                                : 315683806970553353824565266714687825795 (0xED7E7D5BAFBE122A5A0B2B2B21D1E783)
Complete name                            : [Asenshi-GJM-PAS] SSSS.GRIDMAN - 06 [98163B2F].mkv
Format                                   : Matroska
Format version                           : Version 4 / Version 2
File size                                : 309 MiB
Duration                                 : 23 min 39 s
Overall bit rate                         : 1 828 kb/s
Encoded date                             : UTC 2018-11-16 16:02:41
Writing application                      : mkvmerge v28.2.0 ('The Awakening') 32-bit
Writing library                          : libebml v1.3.6 + libmatroska v1.4.9
Attachments                              : LATO-LIGHT.TTF / MAIANDRAGD-REGULAR.TTF / PALATINOLINOTYPE-BOLD.TTF / PRIMERPRINT-BOLD.TTF / PROTOTYPE.TTF / PTSANS-BOLD.TTF / PTSANS-BOLDITALIC.TTF / SPLATTER.TTF / ALEGREYA-BOLD.OTF / HIGHTOWERTEXT-ITALIC.TTF / LATO-HEAVY.TTF

Video
ID                                       : 1
Format                                   : AVC
Format/Info                              : Advanced Video Codec
Format profile                           : High 4:4:4 Predictive@L5
Format settings, CABAC                   : Yes
Format settings, ReFrames                : 16 frames
Codec ID                                 : V_MPEG4/ISO/AVC
Duration                                 : 23 min 39 s
Bit rate                                 : 1 553 kb/s
Width                                    : 1 280 pixels
Height                                   : 720 pixels
Display aspect ratio                     : 16:9
Frame rate mode                          : Constant
Frame rate                               : 23.976 (24000/1001) FPS
Color space                              : YUV
Chroma subsampling                       : 4:4:4
Bit depth                                : 10 bits
Scan type                                : Progressive
Bits/(Pixel*Frame)                       : 0.070
Stream size                              : 263 MiB (85%)
Writing library                          : x264 core 155 r2893 b00bcaf
Encoding settings                        : cabac=1 / ref=16 / deblock=1:-1:-1 / analyse=0x1:0x111 / me=umh / subme=10 / psy=1 / psy_rd=0.80:0.00 / mixed_ref=1 / me_range=32 / chroma_me=1 / trellis=2 / 8x8dct=0 / cqm=0 / deadzone=21,11 / fast_pskip=0 / chroma_qp_offset=4 / threads=22 / lookahead_threads=5 / sliced_threads=0 / nr=0 / decimate=0 / interlaced=0 / bluray_compat=0 / constrained_intra=0 / bframes=16 / b_pyramid=2 / b_adapt=2 / b_bias=0 / direct=3 / weightb=1 / open_gop=0 / weightp=2 / keyint=240 / keyint_min=23 / scenecut=40 / intra_refresh=0 / rc_lookahead=48 / rc=crf / mbtree=1 / crf=15.5 / qcomp=0.75 / qpmin=0 / qpmax=81 / qpstep=4 / ip_ratio=1.40 / aq=3:1.00
Language                                 : Japanese
Default                                  : Yes
Forced                                   : No
Color range                              : Limited
Matrix coefficients                      : BT.709

Audio
ID                                       : 2
Format                                   : AAC
Format/Info                              : Advanced Audio Codec
Format profile                           : LC
Codec ID                                 : A_AAC
Duration                                 : 23 min 39 s
Bit rate                                 : 252 kb/s
Channel(s)                               : 2 channels
Channel positions                        : Front: L R
Sampling rate                            : 48.0 kHz
Frame rate                               : 46.875 FPS (1024 spf)
Compression mode                         : Lossy
Stream size                              : 42.7 MiB (14%)
Language                                 : Japanese
Default                                  : Yes
Forced                                   : No

Text #1
ID                                       : 3
Format                                   : ASS
Codec ID                                 : S_TEXT/ASS
Codec ID/Info                            : Advanced Sub Station Alpha
Duration                                 : 23 min 27 s
Bit rate                                 : 1 120 b/s
Count of elements                        : 1875
Compression mode                         : Lossless
Stream size                              : 193 KiB (0%)
Title                                    : No Honorifics
Language                                 : English
Default                                  : Yes
Forced                                   : No

Text #2
ID                                       : 4
Format                                   : ASS
Codec ID                                 : S_TEXT/ASS
Codec ID/Info                            : Advanced Sub Station Alpha
Duration                                 : 23 min 27 s
Bit rate                                 : 1 119 b/s
Count of elements                        : 1875
Compression mode                         : Lossless
Stream size                              : 192 KiB (0%)
Title                                    : Honorifics
Language                                 : enm
Default                                  : No
Forced                                   : No

Menu
00:00:00.000                             : en:OP
00:01:29.965                             : en:Part A
00:12:09.938                             : en:Part B
00:22:09.870                             : en:ED
beta
Anime DDL+NZB mirror
Current Time: 22/07/2019 23:45



About/FAQs