[asaadas] Zetman - 13 [720p][MP4][AAC].mp4


File Size241.6 MB (253,325,613 bytes)
DownloadFileFactory | JumboFiles
HashesCRC32: 926CEB40, MD5: D6EE579A16FB6CA07DE91C06008FA293, SHA1: 97B9B7E45D187276A51339DC1372CE137BD8B04C, SHA256: 6612594DDB87D0848958B007D540DBF25C1A0436E118A23222968064C46A7DB7, ED2K: 8E73FB0E3330064CA0C9A23CE9E8DE1A
Screenshots
screenshotscreenshotscreenshotscreenshotscreenshot
Additional Info
General
Complete name                    : [asaadas] Zetman - 13 [720p][MP4][AAC].mp4
Format                           : MPEG-4
Format profile                   : Base Media
Codec ID                         : isom
File size                        : 242 MiB
Duration                         : 23mn 39s
Overall bit rate                 : 1 427 Kbps
Encoded date                     : UTC 2012-06-26 10:06:42
Tagged date                      : UTC 2012-06-26 10:06:42

Video
ID                               : 1
Format                           : AVC
Format/Info                      : Advanced Video Codec
Format profile                   : High@L4.1
Format settings, CABAC           : Yes
Format settings, ReFrames        : 9 frames
Codec ID                         : avc1
Codec ID/Info                    : Advanced Video Coding
Duration                         : 23mn 39s
Bit rate mode                    : Variable
Bit rate                         : 1 171 Kbps
Maximum bit rate                 : 6 733 Kbps
Width                            : 1 280 pixels
Height                           : 720 pixels
Display aspect ratio             : 16:9
Frame rate mode                  : Constant
Frame rate                       : 23.976 fps
Color space                      : YUV
Chroma subsampling               : 4:2:0
Bit depth                        : 8 bits
Scan type                        : Progressive
Bits/(Pixel*Frame)               : 0.053
Stream size                      : 198 MiB (82%)
Writing library                  : x264 core 125 r2200 999b753
Encoding settings                : cabac=1 / ref=9 / deblock=1:1:1 / analyse=0x3:0x113 / me=umh / subme=8 / psy=1 / psy_rd=0.40:0.00 / mixed_ref=1 / me_range=16 / chroma_me=1 / trellis=1 / 8x8dct=1 / cqm=0 / deadzone=21,11 / fast_pskip=1 / chroma_qp_offset=-2 / threads=6 / lookahead_threads=1 / sliced_threads=0 / nr=0 / decimate=1 / interlaced=0 / bluray_compat=0 / constrained_intra=0 / bframes=5 / b_pyramid=2 / b_adapt=2 / b_bias=0 / direct=3 / weightb=1 / open_gop=0 / weightp=2 / keyint=250 / keyint_min=23 / scenecut=40 / intra_refresh=0 / rc_lookahead=50 / rc=crf / mbtree=1 / crf=20.0 / qcomp=0.60 / qpmin=0 / qpmax=69 / qpstep=4 / ip_ratio=1.40 / aq=1:0.60
Encoded date                     : UTC 2012-06-27 09:13:44
Tagged date                      : UTC 2012-06-26 10:06:44

Audio
ID                               : 2
Format                           : AAC
Format/Info                      : Advanced Audio Codec
Format profile                   : LC
Codec ID                         : 40
Duration                         : 23mn 39s
Bit rate mode                    : Variable
Bit rate                         : 253 Kbps
Maximum bit rate                 : 262 Kbps
Channel(s)                       : 2 channels
Channel positions                : Front: L R
Sampling rate                    : 48.0 KHz
Compression mode                 : Lossy
Stream size                      : 42.8 MiB (18%)
Title                            : Imported with GPAC 0.4.6-DEV (internal rev. 5)
Encoded date                     : UTC 2012-06-26 10:06:43
Tagged date                      : UTC 2012-06-26 10:06:44
beta
Anime DDL+NZB mirror
Current Time: 23/01/2022 13:10



About/FAQs

Discord