File Size198.7 MB (208,342,039 bytes)
DownloadFileFactory | JumboFiles | UploadedTo
FlameUpload: Part1, Part2
HashesCRC32: FC12976E, MD5: 5BCC427433274BCE12F0BA611685027C, SHA1: B6AFDBBB04AF61B69C8F04B5B4418B2933928846, SHA256: 913E5CF0526A037BEB2F8AF847816369C65DDAC1F05D59EC5D03F72CD9F107BE, ED2K: 83D1338B20A4401370462E7B5783D4FB
Screenshots
screenshotscreenshotscreenshotscreenshotscreenshot
Additional Info
General
Complete name                    : [asaadas] Tasogare Otome x Amnesia - 11 [720p] [H264 AAC MP4].mp4
Format                           : MPEG-4
Format profile                   : Base Media
Codec ID                         : isom
File size                        : 199 MiB
Duration                         : 23mn 39s
Overall bit rate                 : 1 174 Kbps
Encoded date                     : UTC 2012-06-18 03:14:41
Tagged date                      : UTC 2012-06-18 03:14:41

Video
ID                               : 1
Format                           : AVC
Format/Info                      : Advanced Video Codec
Format profile                   : High@L4.1
Format settings, CABAC           : Yes
Format settings, ReFrames        : 9 frames
Codec ID                         : avc1
Codec ID/Info                    : Advanced Video Coding
Duration                         : 23mn 39s
Bit rate mode                    : Variable
Bit rate                         : 981 Kbps
Maximum bit rate                 : 13.5 Mbps
Width                            : 1 280 pixels
Height                           : 720 pixels
Display aspect ratio             : 16:9
Frame rate mode                  : Constant
Frame rate                       : 23.976 fps
Color space                      : YUV
Chroma subsampling               : 4:2:0
Bit depth                        : 8 bits
Scan type                        : Progressive
Bits/(Pixel*Frame)               : 0.044
Stream size                      : 166 MiB (84%)
Writing library                  : x264 core 120 r2164 da19765
Encoding settings                : cabac=1 / ref=9 / deblock=1:1:1 / analyse=0x3:0x113 / me=umh / subme=8 / psy=1 / psy_rd=0.40:0.00 / mixed_ref=1 / me_range=16 / chroma_me=1 / trellis=1 / 8x8dct=1 / cqm=0 / deadzone=21,11 / fast_pskip=1 / chroma_qp_offset=-2 / threads=6 / sliced_threads=0 / nr=0 / decimate=1 / interlaced=0 / bluray_compat=0 / constrained_intra=0 / bframes=5 / b_pyramid=2 / b_adapt=2 / b_bias=0 / direct=3 / weightb=1 / open_gop=0 / weightp=2 / keyint=250 / keyint_min=23 / scenecut=40 / intra_refresh=0 / rc_lookahead=50 / rc=crf / mbtree=1 / crf=20.0 / qcomp=0.60 / qpmin=0 / qpmax=69 / qpstep=4 / ip_ratio=1.40 / aq=1:0.60
Encoded date                     : UTC 2012-06-18 02:47:22
Tagged date                      : UTC 2012-06-18 03:14:43

Audio
ID                               : 2
Format                           : AAC
Format/Info                      : Advanced Audio Codec
Format profile                   : LC
Codec ID                         : 40
Duration                         : 23mn 39s
Bit rate mode                    : Variable
Bit rate                         : 192 Kbps
Maximum bit rate                 : 197 Kbps
Channel(s)                       : 2 channels
Channel positions                : Front: L R
Sampling rate                    : 48.0 KHz
Compression mode                 : Lossy
Stream size                      : 31.9 MiB (16%)
Title                            : Ì 
Encoded date                     : UTC 2012-06-18 03:14:41
Tagged date                      : UTC 2012-06-18 03:14:43
beta
Anime DDL+NZB mirror
Current Time: 19/10/2021 12:10



About/FAQs

Discord