File Size1.439 GB (1,545,511,837 bytes)
DownloadAnonFiles | ClickNUpload | DropAPK
Free: Part1, Part2
MultiUp: Part1
  • BdUpload
  • DownAce
  • Fichier
  • FileCloud
  • Filerio
  • FilesCdn
  • IndiShare
  • Kbagi
  • Turbobit
  • UpToBox
  • Uppit
, Part2
  • BdUpload
  • DownAce
  • Fichier
  • FileCloud
  • Filerio
  • FilesCdn
  • IndiShare
  • Kbagi
  • Turbobit
  • UpToBox
  • Uppit
, Part3
  • BdUpload
  • DownAce
  • Fichier
  • FileCloud
  • Filerio
  • FilesCdn
  • IndiShare
  • Kbagi
  • Turbobit
  • UpToBox
  • Uppit

SolidFiles: Part1, Part2, Part3
ZippyShare: Part1, Part2, Part3
HashesCRC32: 1821F777, MD5: 429B9E0885E9C42F334C1665DB6E2768, SHA1: BE91F66AD5D1B4CF326F95967DC6B984A11DFDC7, SHA256: EEE396F7E5A2DBECD352AF1FF08CC45C3D0F057A6651426EFD395D677561A2AA, ED2K: 328C9E314D9CBCDEB784EAB8FB102020
Screenshots
screenshotscreenshotscreenshotscreenshotscreenshot
SubtitlesAll Attachments | Français (France) [fre, ASS], English (US) [eng, ASS], Español (América Latina) [spa, ASS], Español (España) [spa, ASS], Português (Brasil) [por, ASS], Arabic [ara, ASS], Русский [rus, ASS], Italiano [ita, ASS], Deutsch [ger, ASS]
Additional Info
General
Unique ID                                : 149568993360189175227762054434469456750 (0x7085F0B7EBFD02D2F6293541741C2B6E)
Complete name                            : [Ari] Re Zero kara Hajimeru Isekai Seikatsu 2nd Season - 15 [1080p] [Eng Subs - VOSTFR - Multi-Subs] V2.mkv
Format                                   : Matroska
Format version                           : Version 4
File size                                : 1.44 GiB
Duration                                 : 27 min 39 s
Overall bit rate                         : 7 452 kb/s
Encoded date                             : UTC 2021-01-13 21:07:57
Writing application                      : mkvmerge v52.0.0 ('Secret For The Mad') 64-bit
Writing library                          : libebml v1.4.1 + libmatroska v1.6.2

Video
ID                                       : 1
Format                                   : AVC
Format/Info                              : Advanced Video Codec
Format profile                           : High 10@L4.2
Format settings                          : CABAC / 4 Ref Frames
Format settings, CABAC                   : Yes
Format settings, ReFrames                : 4 frames
Codec ID                                 : V_MPEG4/ISO/AVC
Duration                                 : 27 min 29 s
Bit rate                                 : 7 361 kb/s
Width                                    : 1 920 pixels
Height                                   : 1 080 pixels
Display aspect ratio                     : 16:9
Frame rate mode                          : Constant
Frame rate                               : 23.976 (24000/1001) FPS
Color space                              : YUV
Chroma subsampling                       : 4:2:0
Bit depth                                : 10 bits
Scan type                                : Progressive
Bits/(Pixel*Frame)                       : 0.148
Stream size                              : 1.41 GiB (98%)
Writing library                          : x264 core 161 r3027+53 2464769 t_mod_New [(8 & 10)-bit@all X86_64]
Encoding settings                        : cabac=1 / ref=4 / deblock=1:-1:-1 / analyse=0x3:0x133 / me=umh / subme=10 / psy=1 / fade_compensate=0.00 / psy_rd=0.70:0.00 / mixed_ref=1 / me_range=24 / chroma_me=1 / trellis=2 / 8x8dct=1 / cqm=0 / deadzone=21,11 / fast_pskip=1 / chroma_qp_offset=-2 / threads=18 / lookahead_threads=4 / sliced_threads=0 / nr=0 / decimate=1 / interlaced=0 / bluray_compat=0 / constrained_intra=0 / fgo=0 / bframes=16 / b_pyramid=2 / b_adapt=2 / b_bias=0 / direct=3 / weightb=1 / open_gop=0 / weightp=2 / keyint=250 / keyint_min=23 / scenecut=40 / intra_refresh=0 / rc_lookahead=60 / rc=crf / mbtree=1 / crf=15.0000 / qcomp=0.70 / qpmin=0:0:0 / qpmax=81:81:81 / qpstep=4 / ip_ratio=1.40 / aq=3:0.85 / aq-sensitivity=10.00 / aq-factor=1.00:1.00:1.00 / aq2=0 / aq3=0
Language                                 : Japanese
Default                                  : Yes
Forced                                   : No
Color range                              : Limited
Color primaries                          : BT.709
Transfer characteristics                 : BT.709
Matrix coefficients                      : BT.709

Audio
ID                                       : 2
Format                                   : AAC LC
Format/Info                              : Advanced Audio Codec Low Complexity
Codec ID                                 : A_AAC-2
Duration                                 : 27 min 30 s
Bit rate                                 : 128 kb/s
Channel(s)                               : 2 channels
Channel layout                           : L R
Sampling rate                            : 44.1 kHz
Frame rate                               : 43.066 FPS (1024 SPF)
Compression mode                         : Lossy
Stream size                              : 25.2 MiB (2%)
Language                                 : Japanese
Default                                  : Yes
Forced                                   : No

Text #1
ID                                       : 3
Format                                   : ASS
Codec ID                                 : S_TEXT/ASS
Codec ID/Info                            : Advanced Sub Station Alpha
Duration                                 : 27 min 26 s
Bit rate                                 : 132 b/s
Count of elements                        : 364
Compression mode                         : Lossless
Stream size                              : 26.7 KiB (0%)
Title                                    : Français (France)
Language                                 : French
Default                                  : Yes
Forced                                   : No

Text #2
ID                                       : 4
Format                                   : ASS
Codec ID                                 : S_TEXT/ASS
Codec ID/Info                            : Advanced Sub Station Alpha
Duration                                 : 27 min 36 s
Bit rate                                 : 137 b/s
Count of elements                        : 386
Compression mode                         : Lossless
Stream size                              : 27.9 KiB (0%)
Title                                    : English (US)
Language                                 : English
Default                                  : No
Forced                                   : No

Text #3
ID                                       : 5
Format                                   : ASS
Codec ID                                 : S_TEXT/ASS
Codec ID/Info                            : Advanced Sub Station Alpha
Duration                                 : 27 min 26 s
Bit rate                                 : 107 b/s
Count of elements                        : 344
Compression mode                         : Lossless
Stream size                              : 21.5 KiB (0%)
Title                                    : Español (América Latina)
Language                                 : Spanish
Default                                  : No
Forced                                   : No

Text #4
ID                                       : 6
Format                                   : ASS
Codec ID                                 : S_TEXT/ASS
Codec ID/Info                            : Advanced Sub Station Alpha
Duration                                 : 27 min 26 s
Bit rate                                 : 107 b/s
Count of elements                        : 344
Compression mode                         : Lossless
Stream size                              : 21.6 KiB (0%)
Title                                    : Español (España)
Language                                 : Spanish
Default                                  : No
Forced                                   : No

Text #5
ID                                       : 7
Format                                   : ASS
Codec ID                                 : S_TEXT/ASS
Codec ID/Info                            : Advanced Sub Station Alpha
Duration                                 : 27 min 26 s
Bit rate                                 : 131 b/s
Count of elements                        : 384
Compression mode                         : Lossless
Stream size                              : 26.4 KiB (0%)
Title                                    : Português (Brasil)
Language                                 : Portuguese
Default                                  : No
Forced                                   : No

Text #6
ID                                       : 8
Format                                   : ASS
Codec ID                                 : S_TEXT/ASS
Codec ID/Info                            : Advanced Sub Station Alpha
Duration                                 : 27 min 26 s
Bit rate                                 : 163 b/s
Count of elements                        : 385
Compression mode                         : Lossless
Stream size                              : 32.8 KiB (0%)
Title                                    : Arabic
Language                                 : Arabic
Default                                  : No
Forced                                   : No

Text #7
ID                                       : 9
Format                                   : ASS
Codec ID                                 : S_TEXT/ASS
Codec ID/Info                            : Advanced Sub Station Alpha
Duration                                 : 27 min 26 s
Bit rate                                 : 181 b/s
Count of elements                        : 358
Compression mode                         : Lossless
Stream size                              : 36.5 KiB (0%)
Title                                    : Русский
Language                                 : Russian
Default                                  : No
Forced                                   : No

Text #8
ID                                       : 10
Format                                   : ASS
Codec ID                                 : S_TEXT/ASS
Codec ID/Info                            : Advanced Sub Station Alpha
Duration                                 : 27 min 26 s
Bit rate                                 : 144 b/s
Count of elements                        : 388
Compression mode                         : Lossless
Stream size                              : 29.1 KiB (0%)
Title                                    : Italiano
Language                                 : Italian
Default                                  : No
Forced                                   : No

Text #9
ID                                       : 11
Format                                   : ASS
Codec ID                                 : S_TEXT/ASS
Codec ID/Info                            : Advanced Sub Station Alpha
Duration                                 : 27 min 26 s
Bit rate                                 : 121 b/s
Count of elements                        : 354
Compression mode                         : Lossless
Stream size                              : 24.5 KiB (0%)
Title                                    : Deutsch
Language                                 : German
Default                                  : No
Forced                                   : No

Menu
00:01:27.546                             : :Part 01
00:15:41.983                             : :Part 02
00:27:14.883                             : :Part 03
beta
Anime DDL+NZB mirror
Current Time: 05/03/2021 07:25



About/FAQs