File Size743.0 MB (779,132,397 bytes)
DownloadClickNUpload | DropAPK | Free
MultiUp: Part1
  • BdUpload
  • DownAce
  • Fichier
  • FileCloud
  • Filerio
  • FilesCdn
  • IndiShare
  • Kbagi
  • Turbobit
  • UpToBox
  • Uppit
, Part2
  • BdUpload
  • DownAce
  • Fichier
  • FileCloud
  • Filerio
  • FilesCdn
  • IndiShare
  • Kbagi
  • Turbobit
  • UpToBox
  • Uppit

SolidFiles: Part1, Part2
ZippyShare: Part1, Part2
HashesCRC32: 8F896CEC, MD5: 383111C0A39709C1830E6EB4789A9B20, SHA1: 82A3734B6A666A5D00310AC0717897B81B3A1270, SHA256: 179855A5B261768963D8E69047AA1DD4903A52783F041932AAB76BB4A550108C, ED2K: 25E88F0DBB98C433E049FAC4D371E7D2
Screenshots
screenshotscreenshotscreenshotscreenshotscreenshot
SubtitlesAll Attachments | CR/SubsPlease [eng, ASS], WKN [fre, ASS]
Additional Info
General
Unique ID                                : 180839781678192046761511742133614130603 (0x880C799DFE7AB033153AC48F63AFB5AB)
Complete name                            : [Ari] Fruits Basket S3 (2019) - 07 [1080p] [Eng Subs - VOSTFR].mkv
Format                                   : Matroska
Format version                           : Version 4
File size                                : 743 MiB
Duration                                 : 23 min 55 s
Overall bit rate                         : 4 342 kb/s
Encoded date                             : UTC 2021-05-17 19:53:43
Writing application                      : mkvmerge v56.1.0 ('My Friend') 64-bit
Writing library                          : libebml v1.4.2 + libmatroska v1.6.4
Attachments                              : Roboto-Medium.ttf / Roboto-MediumItalic.ttf / VerdanaPro-CondSemiBold.ttf / VerdanaPro-CondSemiBoldItalic.ttf

Video
ID                                       : 1
Format                                   : AVC
Format/Info                              : Advanced Video Codec
Format profile                           : High 10@L5.1
Format settings                          : CABAC / 16 Ref Frames
Format settings, CABAC                   : Yes
Format settings, ReFrames                : 16 frames
Codec ID                                 : V_MPEG4/ISO/AVC
Duration                                 : 23 min 50 s
Bit rate                                 : 4 222 kb/s
Width                                    : 1 920 pixels
Height                                   : 1 080 pixels
Display aspect ratio                     : 16:9
Frame rate mode                          : Constant
Frame rate                               : 23.976 (24000/1001) FPS
Color space                              : YUV
Chroma subsampling                       : 4:2:0
Bit depth                                : 10 bits
Scan type                                : Progressive
Bits/(Pixel*Frame)                       : 0.085
Stream size                              : 720 MiB (97%)
Writing library                          : x264 core 163 r3059+79 f2a8266 t_mod_test_xavc [(8 & 10)-bit@all X86]
Encoding settings                        : cabac=1 / ref=16 / deblock=1:-1:-1 / analyse=0x3:0x133 / me=umh / subme=10 / psy=1 / fade_compensate=0.00 / psy_rd=0.70:0.00 / mixed_ref=1 / me_range=24 / chroma_me=1 / trellis=2 / 8x8dct=1 / cqm=0 / deadzone=21,11 / fast_pskip=1 / chroma_qp_offset=-2 / threads=18 / lookahead_threads=4 / sliced_threads=0 / nr=0 / decimate=1 / interlaced=0 / bluray_compat=0 / constrained_intra=0 / fgo=0 / bframes=16 / b_pyramid=2 / b_adapt=2 / b_bias=0 / direct=3 / weightb=1 / open_gop=0 / weightp=2 / keyint=250 / keyint_min=23 / scenecut=40 / intra_refresh=0 / rc_lookahead=60 / rc=crf / mbtree=1 / crf=15.5000 / qcomp=0.70 / qpmin=0:0:0 / qpmax=81:81:81 / qpstep=4 / ip_ratio=1.40 / aq=3:0.85 / aq-sensitivity=10.00 / aq-factor=1.00:1.00:1.00 / aq2=0 / aq3=0
Language                                 : Japanese
Default                                  : Yes
Forced                                   : No
Color range                              : Limited
Color primaries                          : BT.709
Transfer characteristics                 : BT.709
Matrix coefficients                      : BT.709

Audio
ID                                       : 2
Format                                   : AAC LC
Format/Info                              : Advanced Audio Codec Low Complexity
Codec ID                                 : A_AAC-2
Duration                                 : 23 min 50 s
Bit rate                                 : 128 kb/s
Channel(s)                               : 2 channels
Channel layout                           : L R
Sampling rate                            : 44.1 kHz
Frame rate                               : 43.066 FPS (1024 SPF)
Compression mode                         : Lossy
Stream size                              : 21.8 MiB (3%)
Language                                 : Japanese
Default                                  : Yes
Forced                                   : No

Text #1
ID                                       : 3
Format                                   : ASS
Codec ID                                 : S_TEXT/ASS
Codec ID/Info                            : Advanced Sub Station Alpha
Duration                                 : 23 min 54 s
Bit rate                                 : 97 b/s
Count of elements                        : 298
Compression mode                         : Lossless
Stream size                              : 17.0 KiB (0%)
Title                                    : CR/SubsPlease
Language                                 : English
Default                                  : Yes
Forced                                   : No

Text #2
ID                                       : 4
Format                                   : ASS
Codec ID                                 : S_TEXT/ASS
Codec ID/Info                            : Advanced Sub Station Alpha
Duration                                 : 23 min 49 s
Bit rate                                 : 123 b/s
Count of elements                        : 400
Compression mode                         : Lossless
Stream size                              : 21.6 KiB (0%)
Title                                    : WKN
Language                                 : French
Default                                  : No
Forced                                   : No

Menu
00:00:00.000                             : :Intro
00:03:10.482                             : :OP
00:04:40.030                             : :Part 1
00:10:05.022                             : :Part 2
00:22:15.043                             : :ED
00:23:45.050                             : :Preview
beta
Anime DDL+NZB mirror
Current Time: 02/08/2021 05:20



About/FAQs