File Size590.7 MB (619,435,290 bytes)
DownloadAnonFiles | ClickNUpload | DropAPK | Free
MultiUp: Part1
  • BdUpload
  • DownAce
  • Fichier
  • FileCloud
  • Filerio
  • FilesCdn
  • IndiShare
  • Kbagi
  • Turbobit
  • UpToBox
  • Uppit
, Part2
  • BdUpload
  • DownAce
  • Fichier
  • FileCloud
  • Filerio
  • FilesCdn
  • IndiShare
  • Kbagi
  • Turbobit
  • UpToBox
  • Uppit

SolidFiles: Part1, Part2
ZippyShare: Part1, Part2
HashesCRC32: FF81D9C8, MD5: 707C5B0C0309E64F729E9A03D0FA2B3D, SHA1: D4C584946268DF57A903173E3F78A4F6730FD736, SHA256: 3F0C10303503729F6636EC41281B17F0ECA8D2CA7104C878E2C463595D46335F, ED2K: DC69AA8127A448E2075090A44EA7AFDB
Screenshots
screenshotscreenshotscreenshotscreenshotscreenshot
SubtitlesAll Attachments | und [ASS]
Additional Info
General
Unique ID                                : 254003079261010957358484845129706779886 (0xBF1736B08E6648A5D4F0ADA9833834EE)
Complete name                            : [Aporiz] Date A Bullet - 02 (BILIBILI 1920x1080+ x264 AAC).mkv
Format                                   : Matroska
Format version                           : Version 4
File size                                : 591 MiB
Duration                                 : 29 min 22 s
Overall bit rate                         : 2 811 kb/s
Encoded date                             : UTC 2021-01-19 05:30:42
Writing application                      : mkvmerge v52.0.0 ('Secret For The Mad') 64-bit
Writing library                          : libebml v1.4.1 + libmatroska v1.6.2

Video
ID                                       : 2
Format                                   : HEVC
Format/Info                              : High Efficiency Video Coding
Format profile                           : Main@L4@Main
Codec ID                                 : V_MPEGH/ISO/HEVC
Duration                                 : 29 min 22 s
Bit rate                                 : 2 682 kb/s
Width                                    : 1 920 pixels
Height                                   : 1 080 pixels
Display aspect ratio                     : 16:9
Frame rate mode                          : Constant
Frame rate                               : 24.000 FPS
Color space                              : YUV
Chroma subsampling                       : 4:2:0
Bit depth                                : 8 bits
Bits/(Pixel*Frame)                       : 0.054
Stream size                              : 564 MiB (95%)
Title                                    : Japanese
Language                                 : Japanese
Default                                  : Yes
Forced                                   : No
Color range                              : Limited
Color primaries                          : BT.709
Transfer characteristics                 : BT.709
Matrix coefficients                      : BT.709

Audio
ID                                       : 3
Format                                   : AAC LC
Format/Info                              : Advanced Audio Codec Low Complexity
Codec ID                                 : A_AAC-2
Duration                                 : 29 min 22 s
Bit rate                                 : 127 kb/s
Channel(s)                               : 2 channels
Channel layout                           : L R
Sampling rate                            : 48.0 kHz
Frame rate                               : 46.875 FPS (1024 SPF)
Compression mode                         : Lossy
Delay relative to video                  : -21 ms
Stream size                              : 26.7 MiB (5%)
Title                                    : English
Language                                 : English
Default                                  : Yes
Forced                                   : No

Text
ID                                       : 1
Format                                   : ASS
Codec ID                                 : S_TEXT/ASS
Codec ID/Info                            : Advanced Sub Station Alpha
Duration                                 : 27 min 13 s
Bit rate                                 : 74 b/s
Count of elements                        : 283
Compression mode                         : Lossless
Stream size                              : 14.9 KiB (0%)
Default                                  : Yes
Forced                                   : No

Other Files in this Torrent
[Aporiz] Date A Bullet - 02 (BILIBILI 1920x1080+ x264 AAC).mkv
beta
Anime DDL+NZB mirror
Current Time: 16/07/2024 16:08



About/FAQs

Discord