File Size319.8 MB (335,297,738 bytes)
DownloadClickNUpload | DropAPK | Free | MultiUp
  • BdUpload
  • DownAce
  • Fichier
  • FileCloud
  • Filerio
  • FilesCdn
  • IndiShare
  • Kbagi
  • Turbobit
  • UpToBox
  • Uppit
| SolidFiles | ZippyShare
Sendspace: Part1, Part2
HashesCRC32: 3CD9B07E, MD5: 05457BB5F5AE5AFC304AFC9AA16CE8B0, SHA1: 9A33251DC50C941AED844541C2EE1021BE4F6E9A, SHA256: E1B8B94C7C8C122D58FAB13BF5462CD0F755CFDC2662E21F31D2FE609476D724, ED2K: F79C7C02151EB31DFBCA5DD270A05EF3
Screenshots
screenshotscreenshotscreenshotscreenshotscreenshot
SubtitlesAll Attachments | eng [ASS]
Additional Info
General
Unique ID                                : 264916736546893089106655403372056691769 (0xC74D1B899BF81438E055AAA41A104439)
Complete name                            : [AON] Chihayafuru S3 -23 [1080p] [HEVC 10bit].mkv
Format                                   : Matroska
Format version                           : Version 4
File size                                : 320 MiB
Duration                                 : 22 min 45 s
Overall bit rate                         : 1 965 kb/s
Encoded date                             : UTC 2020-03-17 20:16:12
Writing application                      : mkvmerge v39.0.0 ('In The Waiting Line') 64-bit
Writing library                          : libebml v1.3.9 + libmatroska v1.5.2
Attachments                              : OpenSans-Semibold.ttf

Video
ID                                       : 1
Format                                   : HEVC
Format/Info                              : High Efficiency Video Coding
Format profile                           : Main 10@L4@Main
Codec ID                                 : V_MPEGH/ISO/HEVC
Duration                                 : 22 min 44 s
Bit rate                                 : 1 833 kb/s
Width                                    : 1 920 pixels
Height                                   : 1 080 pixels
Display aspect ratio                     : 16:9
Frame rate mode                          : Constant
Frame rate                               : 23.976 (24000/1001) FPS
Color space                              : YUV
Chroma subsampling                       : 4:2:0
Bit depth                                : 10 bits
Bits/(Pixel*Frame)                       : 0.037
Stream size                              : 298 MiB (93%)
Default                                  : Yes
Forced                                   : No

Audio
ID                                       : 2
Format                                   : AAC LC
Format/Info                              : Advanced Audio Codec Low Complexity
Codec ID                                 : A_AAC-2
Duration                                 : 22 min 45 s
Bit rate                                 : 128 kb/s
Channel(s)                               : 2 channels
Channel layout                           : L R
Sampling rate                            : 44.1 kHz
Frame rate                               : 43.066 FPS (1024 SPF)
Compression mode                         : Lossy
Delay relative to video                  : 5 ms
Stream size                              : 20.8 MiB (7%)
Language                                 : Japanese
Default                                  : No
Forced                                   : No

Text
ID                                       : 3
Format                                   : ASS
Codec ID                                 : S_TEXT/ASS
Codec ID/Info                            : Advanced Sub Station Alpha
Duration                                 : 21 min 25 s
Bit rate                                 : 160 b/s
Count of elements                        : 366
Compression mode                         : Lossless
Stream size                              : 25.2 KiB (0%)
Language                                 : English
Default                                  : Yes
Forced                                   : No
beta
Anime DDL+NZB mirror
Current Time: 29/09/2020 23:28



About/FAQs