File Size285.9 MB (299,824,261 bytes)
DownloadClickNUpload | Jheberg | MultiUp
  • BdUpload
  • DownAce
  • Fichier
  • FileCloud
  • Filerio
  • FilesCdn
  • IndiShare
  • Kbagi
  • Solidfiles
  • Turbobit
  • UpToBox
  • Uppit
| OpenLoad | Sendspace | ZippyShare
HashesCRC32: 1343F80B, MD5: FBE9C88159D95401EC5E01F8FCBD6EC2, SHA1: CF829D61D51962243BE1FB44DB09FE626BB9FF9A, SHA256: 557AAC528FA4DB81CBC2244B7B1B2BAE431F53E28EDA2C7CD4F3934F0BCE661B, ED2K: 7852D9A79D267ED8D5D83F2CDBF3B99E
Screenshots
screenshotscreenshotscreenshotscreenshotscreenshot
SubtitlesAll Attachments | AnonsAlliance [eng, ASS]
Additional Info
General
Unique ID                                : 327902405498390432098757435455148526257 (0xF6AFB4C6CF49DE16D55F20F824B20AB1)
Complete name                            : [AnonsAlliance] Bokutachi wa Benkyou ga Dekinai - 07 [720p][1343f80b].mkv
Format                                   : Matroska
Format version                           : Version 4
File size                                : 286 MiB
Duration                                 : 23 min 40 s
Overall bit rate                         : 1 689 kb/s
Movie name                               : [AnonsAlliance] Bokutachi wa Benkyou ga Dekinai - 07 [720p]
Encoded date                             : UTC 2019-05-18 19:30:33
Writing application                      : mkvmerge v32.0.0 ('Astral Progressions') 64-bit
Writing library                          : libebml v1.3.7 + libmatroska v1.5.0
Attachments                              : Bemio_0.otf / BRLNSB_0.TTF / ChalkDust_0.ttf / corbel_0.ttf / corbelb_0.ttf / CP Font_0.ttf / deathrattlebb_reg_0.ttf / DraconianMechanicalPencil001.ttf / gishabd.ttf / ianfont_0.ttf / IwaRGoPro-Db-Toaru_0.ttf / LuckiestGuy-Regular.ttf / PassionOne-Regular.ttf / poo_2.TTF / SourceCodePro-Black.ttf / UVNThoiDai2_0.TTF / 111_0.otf / badankadonk_0.ttf / OpenSans-Semibold.ttf

Video
ID                                       : 1
Format                                   : AVC
Format/Info                              : Advanced Video Codec
Format profile                           : High@L4
Format settings                          : CABAC / 6 Ref Frames
Format settings, CABAC                   : Yes
Format settings, ReFrames                : 6 frames
Codec ID                                 : V_MPEG4/ISO/AVC
Duration                                 : 23 min 40 s
Bit rate                                 : 1 508 kb/s
Width                                    : 1 280 pixels
Height                                   : 720 pixels
Display aspect ratio                     : 16:9
Frame rate mode                          : Constant
Frame rate                               : 23.976 (24000/1001) FPS
Color space                              : YUV
Chroma subsampling                       : 4:2:0
Bit depth                                : 8 bits
Scan type                                : Progressive
Bits/(Pixel*Frame)                       : 0.068
Stream size                              : 255 MiB (89%)
Writing library                          : x264 core 142
Encoding settings                        : cabac=1 / ref=6 / deblock=1:1:1 / analyse=0x3:0x113 / me=umh / subme=8 / psy=1 / psy_rd=0.40:0.00 / mixed_ref=1 / me_range=16 / chroma_me=1 / trellis=1 / 8x8dct=1 / cqm=0 / deadzone=21,11 / fast_pskip=1 / chroma_qp_offset=-2 / threads=10 / lookahead_threads=1 / sliced_threads=0 / nr=0 / decimate=1 / interlaced=0 / bluray_compat=0 / constrained_intra=0 / bframes=3 / b_pyramid=2 / b_adapt=2 / b_bias=0 / direct=3 / weightb=1 / open_gop=0 / weightp=2 / keyint=9999999 / keyint_min=5000000 / scenecut=0 / intra_refresh=0 / rc_lookahead=50 / rc=crf / mbtree=1 / crf=15.0 / qcomp=0.60 / qpmin=0 / qpmax=69 / qpstep=4 / vbv_maxrate=4000 / vbv_bufsize=6000 / crf_max=0.0 / nal_hrd=none / filler=0 / ip_ratio=1.40 / aq=1:0.60
Language                                 : Japanese
Default                                  : Yes
Forced                                   : No

Audio
ID                                       : 2
Format                                   : AAC LC
Format/Info                              : Advanced Audio Codec Low Complexity
Codec ID                                 : A_AAC-2
Duration                                 : 23 min 39 s
Bit rate                                 : 128 kb/s
Channel(s)                               : 2 channels
Channel layout                           : L R
Sampling rate                            : 44.1 kHz
Frame rate                               : 43.066 FPS (1024 SPF)
Compression mode                         : Lossy
Stream size                              : 21.7 MiB (8%)
Language                                 : Japanese
Default                                  : Yes
Forced                                   : No

Text
ID                                       : 3
Format                                   : ASS
Codec ID                                 : S_TEXT/ASS
Codec ID/Info                            : Advanced Sub Station Alpha
Duration                                 : 23 min 36 s
Bit rate                                 : 114 b/s
Count of elements                        : 308
Compression mode                         : Lossless
Stream size                              : 19.8 KiB (0%)
Title                                    : AnonsAlliance
Language                                 : English
Default                                  : Yes
Forced                                   : No

Menu
00:00:00.000                             : en: - Start / en:INDEX 01
00:01:00.000                             : en: - OP / en:INDEX 01
00:02:30.000                             : en: - Part 1 / en:INDEX 01
00:13:47.200                             : en: - Part 2 / en:INDEX 01
00:21:07.000                             : en: - ED / en:INDEX 01
00:22:37.000                             : en: - Preview / en:INDEX 01
beta
Anime DDL+NZB mirror
Current Time: 01/04/2020 07:41



About/FAQs