File Size307.3 MB (322,260,618 bytes)
DownloadClickNUpload | Jheberg | MultiUp
  • BdUpload
  • DownAce
  • Fichier
  • FileCloud
  • Filerio
  • FilesCdn
  • IndiShare
  • Kbagi
  • Solidfiles
  • Turbobit
  • UpToBox
  • Uppit
| OpenLoad | ZippyShare
Sendspace: Part1, Part2
HashesCRC32: 41C9CF3F, MD5: 12E71C1923AF4BE65651F6A40D536821, SHA1: 44E10419A1FEC886EA081DE2F1D09E9D82508422, SHA256: 2E9585068B32B4D3B98DC8534651ACA38BC6DC0B49E7FDE5DB5A7C51B48EAF26, ED2K: A0F359FD6186C8E4DF4DABFEF1217911
Screenshots
screenshotscreenshotscreenshotscreenshotscreenshot
SubtitlesAll Attachments | AnonsAlliance [eng, ASS]
Additional Info
General
Unique ID                                : 88077734601935159189802765456585223978 (0x424327972A97B9E42A828B7EFEEB6F2A)
Complete name                            : [AnonsAlliance] Bokutachi wa Benkyou ga Dekinai - 06 [720p][41c9cf3f].mkv
Format                                   : Matroska
Format version                           : Version 4
File size                                : 307 MiB
Duration                                 : 23 min 39 s
Overall bit rate                         : 1 816 kb/s
Movie name                               : [AnonsAlliance] Bokutachi wa Benkyou ga Dekinai - 06 [720p]
Encoded date                             : UTC 2019-05-11 19:48:00
Writing application                      : mkvmerge v32.0.0 ('Astral Progressions') 64-bit
Writing library                          : libebml v1.3.7 + libmatroska v1.5.0
Attachments                              : corbel_0.ttf / corbelb_0.ttf / CP Font_0.ttf / deathrattlebb_reg_0.ttf / DraconianMechanicalPencil001.ttf / gishabd.ttf / ianfont_0.ttf / IwaRGoPro-Db-Toaru_0.ttf / LuckiestGuy-Regular.ttf / PassionOne-Regular.ttf / poo_2.TTF / SourceCodePro-Black.ttf / UVNThoiDai2_0.TTF / 111_0.otf / badankadonk_0.ttf / Bemio_0.otf / BRLNSB_0.TTF / ChalkDust_0.ttf

Video
ID                                       : 1
Format                                   : AVC
Format/Info                              : Advanced Video Codec
Format profile                           : High@L4
Format settings                          : CABAC / 6 Ref Frames
Format settings, CABAC                   : Yes
Format settings, ReFrames                : 6 frames
Codec ID                                 : V_MPEG4/ISO/AVC
Duration                                 : 23 min 39 s
Bit rate                                 : 1 635 kb/s
Width                                    : 1 280 pixels
Height                                   : 720 pixels
Display aspect ratio                     : 16:9
Frame rate mode                          : Constant
Frame rate                               : 23.976 (24000/1001) FPS
Color space                              : YUV
Chroma subsampling                       : 4:2:0
Bit depth                                : 8 bits
Scan type                                : Progressive
Bits/(Pixel*Frame)                       : 0.074
Stream size                              : 277 MiB (90%)
Writing library                          : x264 core 142
Encoding settings                        : cabac=1 / ref=6 / deblock=1:1:1 / analyse=0x3:0x113 / me=umh / subme=8 / psy=1 / psy_rd=0.40:0.00 / mixed_ref=1 / me_range=16 / chroma_me=1 / trellis=1 / 8x8dct=1 / cqm=0 / deadzone=21,11 / fast_pskip=1 / chroma_qp_offset=-2 / threads=10 / lookahead_threads=1 / sliced_threads=0 / nr=0 / decimate=1 / interlaced=0 / bluray_compat=0 / constrained_intra=0 / bframes=3 / b_pyramid=2 / b_adapt=2 / b_bias=0 / direct=3 / weightb=1 / open_gop=0 / weightp=2 / keyint=9999999 / keyint_min=5000000 / scenecut=0 / intra_refresh=0 / rc_lookahead=50 / rc=crf / mbtree=1 / crf=15.0 / qcomp=0.60 / qpmin=0 / qpmax=69 / qpstep=4 / vbv_maxrate=4000 / vbv_bufsize=6000 / crf_max=0.0 / nal_hrd=none / filler=0 / ip_ratio=1.40 / aq=1:0.60
Language                                 : Japanese
Default                                  : Yes
Forced                                   : No

Audio
ID                                       : 2
Format                                   : AAC LC
Format/Info                              : Advanced Audio Codec Low Complexity
Codec ID                                 : A_AAC-2
Duration                                 : 23 min 39 s
Bit rate                                 : 128 kb/s
Channel(s)                               : 2 channels
Channel layout                           : L R
Sampling rate                            : 44.1 kHz
Frame rate                               : 43.066 FPS (1024 SPF)
Compression mode                         : Lossy
Stream size                              : 21.7 MiB (7%)
Language                                 : Japanese
Default                                  : Yes
Forced                                   : No

Text
ID                                       : 3
Format                                   : ASS
Codec ID                                 : S_TEXT/ASS
Codec ID/Info                            : Advanced Sub Station Alpha
Duration                                 : 23 min 38 s
Bit rate                                 : 121 b/s
Count of elements                        : 343
Compression mode                         : Lossless
Stream size                              : 21.1 KiB (0%)
Title                                    : AnonsAlliance
Language                                 : English
Default                                  : Yes
Forced                                   : No

Menu
00:00:00.000                             : en: - Start / en:INDEX 01
00:00:18.000                             : en: - OP / en:INDEX 01
00:01:48.000                             : en: - Part 1 / en:INDEX 01
00:14:33.000                             : en: - Part 2 / en:INDEX 01
00:21:48.000                             : en: - ED / en:INDEX 01
00:23:18.000                             : en: - Preview / en:INDEX 01
beta
Anime DDL+NZB mirror
Current Time: 25/08/2019 19:53



About/FAQs