[anon] Healin'♥Good Precure - 07.mkv


File Size480.8 MB (504,136,310 bytes)
DownloadClickNUpload | DropAPK | MultiUp
  • BdUpload
  • DownAce
  • Fichier
  • FileCloud
  • Filerio
  • FilesCdn
  • IndiShare
  • Kbagi
  • Turbobit
  • UpToBox
  • Uppit
| SolidFiles | ZippyShare
Sendspace: Part1, Part2
HashesCRC32: 84A99172, MD5: 26E45CECD763D9C329F28FCAE585BE1A, SHA1: 7154D6FD33AE22646E27E523935A4EC98A8EF121, SHA256: 26E77B268603B27FBA06EAF644AD407E4980970EBA5D8313658087BCB7A00BB5, ED2K: 4101A13757BE1C775C7BC7A0D0DFB99C
Screenshots
screenshotscreenshotscreenshotscreenshotscreenshot
SubtitlesAll Attachments | und [ASS]
Additional Info
General
Unique ID                                : 34381328957743690757086944956841328833 (0x19DD9A648C85931DB58C200BD87E00C1)
Complete name                            : [anon] Healin'♥Good Precure - 07.mkv
Format                                   : Matroska
Format version                           : Version 4
File size                                : 481 MiB
Duration                                 : 24 min 20 s
Overall bit rate                         : 2 761 kb/s
Encoded date                             : UTC 2020-03-15 05:36:06
Writing application                      : mkvmerge v30.1.0 ('Forever And More') 64-bit
Writing library                          : libebml v1.3.6 + libmatroska v1.4.9
Attachments                              : segoeprb.ttf / trebuc.ttf / trebucbd.ttf / trebucbi.ttf

Video
ID                                       : 1
Format                                   : AVC
Format/Info                              : Advanced Video Codec
Format profile                           : Main@L4.1
Format settings                          : CABAC / 4 Ref Frames
Format settings, CABAC                   : Yes
Format settings, ReFrames                : 4 frames
Codec ID                                 : V_MPEG4/ISO/AVC
Duration                                 : 24 min 20 s
Bit rate                                 : 2 550 kb/s
Width                                    : 1 280 pixels
Height                                   : 720 pixels
Display aspect ratio                     : 16:9
Frame rate mode                          : Constant
Frame rate                               : 23.976 (23976/1000) FPS
Original frame rate                      : 23.976 (24000/1001) FPS
Color space                              : YUV
Chroma subsampling                       : 4:2:0
Bit depth                                : 8 bits
Scan type                                : Progressive
Bits/(Pixel*Frame)                       : 0.115
Stream size                              : 444 MiB (92%)
Writing library                          : x264 core 159 r2991 [Ohys-Raws]
Encoding settings                        : cabac=1 / ref=3 / deblock=1:0:0 / analyse=0x1:0x111 / me=hex / subme=7 / psy=1 / psy_rd=1.00:0.00 / mixed_ref=1 / me_range=16 / chroma_me=1 / trellis=1 / 8x8dct=0 / cqm=0 / deadzone=21,11 / fast_pskip=1 / chroma_qp_offset=-2 / threads=22 / lookahead_threads=3 / sliced_threads=0 / nr=0 / decimate=1 / interlaced=0 / bluray_compat=0 / constrained_intra=0 / bframes=3 / b_pyramid=2 / b_adapt=1 / b_bias=0 / direct=1 / weightb=1 / open_gop=0 / weightp=2 / keyint=240 / keyint_min=1 / scenecut=40 / intra_refresh=0 / rc_lookahead=40 / rc=crf / mbtree=1 / crf=20.0 / qcomp=0.60 / qpmin=0 / qpmax=69 / qpstep=4 / ip_ratio=1.40 / aq=1:1.50
Default                                  : Yes
Forced                                   : No
Color range                              : Limited
Color primaries                          : BT.709
Transfer characteristics                 : BT.709
Matrix coefficients                      : BT.709

Audio
ID                                       : 2
Format                                   : AAC LC
Format/Info                              : Advanced Audio Codec Low Complexity
Codec ID                                 : A_AAC-2
Duration                                 : 24 min 19 s
Bit rate                                 : 206 kb/s
Channel(s)                               : 2 channels
Channel layout                           : L R
Sampling rate                            : 48.0 kHz
Frame rate                               : 46.875 FPS (1024 SPF)
Compression mode                         : Lossy
Stream size                              : 35.9 MiB (7%)
Language                                 : Japanese
Default                                  : Yes
Forced                                   : No

Text
ID                                       : 3
Format                                   : ASS
Codec ID                                 : S_TEXT/ASS
Codec ID/Info                            : Advanced Sub Station Alpha
Duration                                 : 24 min 18 s
Bit rate                                 : 107 b/s
Count of elements                        : 330
Compression mode                         : Lossless
Stream size                              : 19.1 KiB (0%)
Default                                  : Yes
Forced                                   : No

Menu
00:00:00.000                             : :Cold open
00:01:06.024                             : :OP
00:02:43.580                             : :Part A
00:13:01.070                             : :Eyecatch
00:13:08.037                             : :Part B
00:22:15.042                             : :ED
00:23:45.090                             : :Preview
beta
Anime DDL+NZB mirror
Current Time: 06/08/2020 01:03



About/FAQs