[AnimeRG] Nora Princess And Stray Cat- 7 [1280x720] [Multi Sub] [Pseudo-Bitch].mkv


File Size71.98 MB (75,480,682 bytes)
DownloadClickNUpload | Go4Up | Jheberg | MultiUp
  • ClickNupload
  • Fichier
  • Filerio
  • Free
  • Fufox
  • HugeFiles
  • Mightyupload
  • ToutBox
  • Turbobit
  • UpToBox
  • Uplea
  • UploadBaz
  • Uploadable
  • Uploaded
  • Uppit
  • Userscloud
  • ZippyShare
| OpenLoad | Sendspace | SolidFiles
Encrypted DownloadDirect
Password:
HashesCRC32: 9C67538A, MD5: C7D8819ACCD59A6FBBE79CFE2246DAA2, SHA1: E2A403BE66DCF9BCC83A2A5CDC8CD6958620E545, SHA256: 54281B10B35D33E651232719770D62CF04A00666D6F38B74A42A0D61B8575275, ED2K: 882A2C1881A5E224263F128F51D9D34E
Screenshots
screenshotscreenshotscreenshotscreenshot
SubtitlesAll Attachments | English(US) [und, ASS], Arabic [und, ASS], Español(España) [und, ASS], Español [und, ASS], Français(France) [und, ASS], Italiano [und, ASS], Português(Brasil) [und, ASS]
Additional Info
General
Unique ID                                : 214413501509036894344868865829834459234 (0xA14E89CE45BCA97886F16BBBF5E20862)
Complete name                            : [AnimeRG] Nora Princess And Stray Cat- 7 [1280x720] [Multi Sub] [Pseudo-Bitch].mkv
Format                                   : Matroska
Format version                           : Version 4 / Version 2
File size                                : 72.0 MiB
Duration                                 : 3 min 30 s
Overall bit rate                         : 2 874 kb/s
Encoded date                             : UTC 2017-08-23 23:50:27
Writing application                      : mkvmerge v12.0.0 ('Trust / Lust') 64bit
Writing library                          : libebml v1.3.4 + libmatroska v1.4.5
Attachments                              : arial.ttf / trebuc.ttf / trebucit.ttf

Video
ID                                       : 1
Format                                   : AVC
Format/Info                              : Advanced Video Codec
Format profile                           : High@L4
Format settings, CABAC                   : Yes
Format settings, ReFrames                : 6 frames
Codec ID                                 : V_MPEG4/ISO/AVC
Duration                                 : 3 min 30 s
Bit rate                                 : 2 701 kb/s
Width                                    : 1 280 pixels
Height                                   : 720 pixels
Display aspect ratio                     : 16:9
Frame rate mode                          : Constant
Frame rate                               : 29.970 (30000/1001) FPS
Color space                              : YUV
Chroma subsampling                       : 4:2:0
Bit depth                                : 8 bits
Scan type                                : Progressive
Bits/(Pixel*Frame)                       : 0.098
Stream size                              : 67.6 MiB (94%)
Writing library                          : x264 core 142
Encoding settings                        : cabac=1 / ref=6 / deblock=1:1:1 / analyse=0x3:0x113 / me=umh / subme=8 / psy=1 / psy_rd=0.40:0.00 / mixed_ref=1 / me_range=16 / chroma_me=1 / trellis=1 / 8x8dct=1 / cqm=0 / deadzone=21,11 / fast_pskip=1 / chroma_qp_offset=-2 / threads=10 / lookahead_threads=1 / sliced_threads=0 / nr=0 / decimate=1 / interlaced=0 / bluray_compat=0 / constrained_intra=0 / bframes=3 / b_pyramid=2 / b_adapt=2 / b_bias=0 / direct=3 / weightb=1 / open_gop=0 / weightp=2 / keyint=60 / keyint_min=30 / scenecut=40 / intra_refresh=0 / rc_lookahead=50 / rc=crf / mbtree=1 / crf=15.0 / qcomp=0.60 / qpmin=0 / qpmax=69 / qpstep=4 / vbv_maxrate=4000 / vbv_bufsize=6000 / crf_max=0.0 / nal_hrd=none / filler=0 / ip_ratio=1.40 / aq=1:0.60
Default                                  : Yes
Forced                                   : No

Audio
ID                                       : 2
Format                                   : AAC
Format/Info                              : Advanced Audio Codec
Format profile                           : LC
Codec ID                                 : A_AAC
Duration                                 : 3 min 30 s
Bit rate                                 : 128 kb/s
Channel(s)                               : 2 channels
Channel positions                        : Front: L R
Sampling rate                            : 44.1 kHz
Frame rate                               : 43.066 FPS (1024 spf)
Compression mode                         : Lossy
Delay relative to video                  : -66 ms
Stream size                              : 3.21 MiB (4%)
Default                                  : Yes
Forced                                   : No

Text #1
ID                                       : 3
Format                                   : ASS
Codec ID                                 : S_TEXT/ASS
Codec ID/Info                            : Advanced Sub Station Alpha
Duration                                 : 3 min 28 s
Bit rate                                 : 169 b/s
Count of elements                        : 70
Compression mode                         : Lossless
Stream size                              : 4.31 KiB (0%)
Title                                    : English(US)
Default                                  : Yes
Forced                                   : No

Text #2
ID                                       : 4
Format                                   : ASS
Codec ID                                 : S_TEXT/ASS
Codec ID/Info                            : Advanced Sub Station Alpha
Duration                                 : 3 min 28 s
Bit rate                                 : 205 b/s
Count of elements                        : 71
Compression mode                         : Lossless
Stream size                              : 5.21 KiB (0%)
Title                                    : Arabic
Default                                  : No
Forced                                   : No

Text #3
ID                                       : 5
Format                                   : ASS
Codec ID                                 : S_TEXT/ASS
Codec ID/Info                            : Advanced Sub Station Alpha
Duration                                 : 3 min 28 s
Bit rate                                 : 137 b/s
Count of elements                        : 64
Compression mode                         : Lossless
Stream size                              : 3.49 KiB (0%)
Title                                    : Español(España)
Default                                  : No
Forced                                   : No

Text #4
ID                                       : 6
Format                                   : ASS
Codec ID                                 : S_TEXT/ASS
Codec ID/Info                            : Advanced Sub Station Alpha
Duration                                 : 3 min 28 s
Bit rate                                 : 136 b/s
Count of elements                        : 64
Compression mode                         : Lossless
Stream size                              : 3.47 KiB (0%)
Title                                    : Español
Default                                  : No
Forced                                   : No

Text #5
ID                                       : 7
Format                                   : ASS
Codec ID                                 : S_TEXT/ASS
Codec ID/Info                            : Advanced Sub Station Alpha
Duration                                 : 3 min 27 s
Bit rate                                 : 149 b/s
Count of elements                        : 55
Compression mode                         : Lossless
Stream size                              : 3.81 KiB (0%)
Title                                    : Français(France)
Default                                  : No
Forced                                   : No

Text #6
ID                                       : 8
Format                                   : ASS
Codec ID                                 : S_TEXT/ASS
Codec ID/Info                            : Advanced Sub Station Alpha
Duration                                 : 3 min 28 s
Bit rate                                 : 182 b/s
Count of elements                        : 71
Compression mode                         : Lossless
Stream size                              : 4.63 KiB (0%)
Title                                    : Italiano
Default                                  : No
Forced                                   : No

Text #7
ID                                       : 9
Format                                   : ASS
Codec ID                                 : S_TEXT/ASS
Codec ID/Info                            : Advanced Sub Station Alpha
Duration                                 : 3 min 28 s
Bit rate                                 : 187 b/s
Count of elements                        : 72
Compression mode                         : Lossless
Stream size                              : 4.76 KiB (0%)
Title                                    : Português(Brasil)
Default                                  : No
Forced                                   : No
beta
Anime DDL+NZB mirror
Current Time: 15/12/2019 10:31



About/FAQs