[AnimeRG] Mobile Suit Gundam Seed Hd Remaster - 48 [1280X720] [English Sub] [Web-DL] [Pseudo-ReleaseBitch].mkv


File Size309.1 MB (324,146,931 bytes)
DownloadClickNUpload | Go4Up | Jheberg | MultiUp
  • ClickNupload
  • Fichier
  • Filerio
  • Free
  • Fufox
  • HugeFiles
  • Mightyupload
  • ToutBox
  • Turbobit
  • UpToBox
  • Uplea
  • UploadBaz
  • Uploadable
  • Uploaded
  • Uppit
  • Userscloud
| OpenLoad | SolidFiles
Sendspace: Part1, Part2
HashesCRC32: 3603B615, MD5: 94BBE0C1024294EF35812722DA2A770F, SHA1: 32E15E2532DE72D114257619BD759AC5FA03690A, SHA256: C84481529E6D2FB9962025B8B74E796B38096EAFBA0FDA49C7CADDDFC590653D, ED2K: F2F7F90F06965966EC9BE337AA6496E8
Screenshots
screenshotscreenshotscreenshotscreenshotscreenshot
SubtitlesAll Attachments | eng [ASS]
Additional Info
General
Unique ID                                : 240420794200562521433798518601075427518 (0xB4DF5C558D5AB5C49D470B33416888BE)
Complete name                            : [AnimeRG] Mobile Suit Gundam Seed Hd Remaster - 48 [1280X720] [English Sub] [Web-DL] [Pseudo-ReleaseBitch].mkv
Format                                   : Matroska
Format version                           : Version 4 / Version 2
File size                                : 309 MiB
Duration                                 : 23 min 23 s
Overall bit rate                         : 1 848 kb/s
Encoded date                             : UTC 2017-05-25 02:09:36
Writing application                      : mkvmerge v9.0.0 ('Power to progress') 64bit
Writing library                          : libebml v1.3.3 + libmatroska v1.4.4
Attachments                              : arial.ttf / trebuc.ttf / trebucit.ttf

Video
ID                                       : 1
Format                                   : AVC
Format/Info                              : Advanced Video Codec
Format profile                           : High@L3.1
Format settings, CABAC                   : Yes
Format settings, ReFrames                : 4 frames
Codec ID                                 : V_MPEG4/ISO/AVC
Duration                                 : 23 min 23 s
Bit rate                                 : 1 714 kb/s
Width                                    : 1 280 pixels
Height                                   : 720 pixels
Display aspect ratio                     : 16:9
Frame rate mode                          : Constant
Frame rate                               : 23.976 FPS
Color space                              : YUV
Chroma subsampling                       : 4:2:0
Bit depth                                : 8 bits
Scan type                                : Progressive
Bits/(Pixel*Frame)                       : 0.078
Stream size                              : 287 MiB (93%)
Writing library                          : x264 core 142
Encoding settings                        : cabac=1 / ref=4 / deblock=1:1:1 / analyse=0x3:0x113 / me=hex / subme=6 / psy=1 / psy_rd=0.40:0.00 / mixed_ref=1 / me_range=16 / chroma_me=1 / trellis=1 / 8x8dct=1 / cqm=0 / deadzone=21,11 / fast_pskip=1 / chroma_qp_offset=-2 / threads=10 / lookahead_threads=1 / sliced_threads=0 / nr=0 / decimate=1 / interlaced=0 / bluray_compat=0 / constrained_intra=0 / bframes=5 / b_pyramid=2 / b_adapt=1 / b_bias=0 / direct=1 / weightb=1 / open_gop=0 / weightp=1 / keyint=48 / keyint_min=24 / scenecut=40 / intra_refresh=0 / rc_lookahead=30 / rc=crf / mbtree=1 / crf=25.4 / qcomp=0.60 / qpmin=0 / qpmax=69 / qpstep=4 / vbv_maxrate=4000 / vbv_bufsize=6000 / crf_max=0.0 / nal_hrd=none / filler=0 / ip_ratio=1.40 / aq=1:0.60
Default                                  : Yes
Forced                                   : No

Audio
ID                                       : 2
Format                                   : AAC
Format/Info                              : Advanced Audio Codec
Format profile                           : LC
Codec ID                                 : A_AAC
Duration                                 : 23 min 23 s
Bit rate                                 : 126 kb/s
Channel(s)                               : 2 channels
Channel positions                        : Front: L R
Sampling rate                            : 44.1 kHz
Frame rate                               : 43.066 FPS (1024 spf)
Compression mode                         : Lossy
Stream size                              : 21.0 MiB (7%)
Default                                  : Yes
Forced                                   : No

Text
ID                                       : 3
Format                                   : ASS
Codec ID                                 : S_TEXT/ASS
Codec ID/Info                            : Advanced Sub Station Alpha
Duration                                 : 22 min 59 s
Bit rate                                 : 86 b/s
Count of elements                        : 233
Compression mode                         : Lossless
Stream size                              : 14.5 KiB (0%)
Language                                 : English
Default                                  : Yes
Forced                                   : No
beta
Anime DDL+NZB mirror
Current Time: 23/06/2024 02:21



About/FAQs

Discord