[AnimeRG] Mobile Suit Gundam Seed Hd Remaster - 29 [1280X720] [English Sub] [Web-DL] [Pseudo-ReleaseBitch].mkv


File Size190.9 MB (200,120,971 bytes)
DownloadClickNUpload | Go4Up | Jheberg | MultiUp
  • ClickNupload
  • Fichier
  • Filerio
  • Free
  • Fufox
  • HugeFiles
  • Mightyupload
  • ToutBox
  • Turbobit
  • UpToBox
  • Uplea
  • UploadBaz
  • Uploadable
  • Uploaded
  • Uppit
  • Userscloud
  • ZippyShare
| OpenLoad | Sendspace | SolidFiles
HashesCRC32: E62FD6C0, MD5: 6D0DB8307D91435812D68732E3B5378B, SHA1: 6DC3FC2D56B62AC2E86C4A2505C21FA52F06D2F0, SHA256: B561CA1686F10D959E6B1FE51BC8A43FFBB66BD01DD1A3FFC7933CDBEA873DB1, ED2K: 6331D1189F94CE78EF2AD2B605ED4036
Screenshots
screenshotscreenshotscreenshotscreenshotscreenshot
SubtitlesAll Attachments | eng [ASS]
Additional Info
General
Unique ID                                : 174726209188050808898045459126572661841 (0x83730B38BC1852059625962B9AF1BC51)
Complete name                            : [AnimeRG] Mobile Suit Gundam Seed Hd Remaster - 29 [1280X720] [English Sub] [Web-DL] [Pseudo-ReleaseBitch].mkv
Format                                   : Matroska
Format version                           : Version 4 / Version 2
File size                                : 191 MiB
Duration                                 : 23 min 53 s
Overall bit rate                         : 1 117 kb/s
Encoded date                             : UTC 2017-05-25 04:18:49
Writing application                      : mkvmerge v9.0.0 ('Power to progress') 64bit
Writing library                          : libebml v1.3.3 + libmatroska v1.4.4
Attachments                              : arial.ttf / trebuc.ttf / trebucit.ttf

Video
ID                                       : 1
Format                                   : AVC
Format/Info                              : Advanced Video Codec
Format profile                           : High@L3.1
Format settings, CABAC                   : Yes
Format settings, ReFrames                : 4 frames
Codec ID                                 : V_MPEG4/ISO/AVC
Duration                                 : 23 min 53 s
Bit rate                                 : 983 kb/s
Width                                    : 1 280 pixels
Height                                   : 720 pixels
Display aspect ratio                     : 16:9
Frame rate mode                          : Constant
Frame rate                               : 23.976 FPS
Color space                              : YUV
Chroma subsampling                       : 4:2:0
Bit depth                                : 8 bits
Scan type                                : Progressive
Bits/(Pixel*Frame)                       : 0.044
Stream size                              : 168 MiB (88%)
Writing library                          : x264 core 142
Encoding settings                        : cabac=1 / ref=4 / deblock=1:1:1 / analyse=0x3:0x113 / me=hex / subme=6 / psy=1 / psy_rd=0.40:0.00 / mixed_ref=1 / me_range=16 / chroma_me=1 / trellis=1 / 8x8dct=1 / cqm=0 / deadzone=21,11 / fast_pskip=1 / chroma_qp_offset=-2 / threads=10 / lookahead_threads=1 / sliced_threads=0 / nr=0 / decimate=1 / interlaced=0 / bluray_compat=0 / constrained_intra=0 / bframes=5 / b_pyramid=2 / b_adapt=1 / b_bias=0 / direct=1 / weightb=1 / open_gop=0 / weightp=1 / keyint=48 / keyint_min=24 / scenecut=40 / intra_refresh=0 / rc_lookahead=30 / rc=crf / mbtree=1 / crf=24.1 / qcomp=0.60 / qpmin=0 / qpmax=69 / qpstep=4 / vbv_maxrate=4000 / vbv_bufsize=6000 / crf_max=0.0 / nal_hrd=none / filler=0 / ip_ratio=1.40 / aq=1:0.60
Default                                  : Yes
Forced                                   : No

Audio
ID                                       : 2
Format                                   : AAC
Format/Info                              : Advanced Audio Codec
Format profile                           : LC
Codec ID                                 : A_AAC
Duration                                 : 23 min 53 s
Bit rate                                 : 126 kb/s
Channel(s)                               : 2 channels
Channel positions                        : Front: L R
Sampling rate                            : 44.1 kHz
Frame rate                               : 43.066 FPS (1024 spf)
Compression mode                         : Lossy
Stream size                              : 21.5 MiB (11%)
Default                                  : Yes
Forced                                   : No

Text
ID                                       : 3
Format                                   : ASS
Codec ID                                 : S_TEXT/ASS
Codec ID/Info                            : Advanced Sub Station Alpha
Duration                                 : 23 min 46 s
Bit rate                                 : 121 b/s
Count of elements                        : 336
Compression mode                         : Lossless
Stream size                              : 21.1 KiB (0%)
Language                                 : English
Default                                  : Yes
Forced                                   : No
beta
Anime DDL+NZB mirror
Current Time: 23/06/2024 00:49



About/FAQs

Discord