[AnimeRG] Fairy Tail - 228 [720p] [10bit] [Eng Dubbed] [JRR].mkv


File Size128.0 MB (134,230,589 bytes)
DownloadGo4Up | Jheberg | MultiUp
  • ClickNupload
  • Fichier
  • Filerio
  • Free
  • Fufox
  • HugeFiles
  • Mightyupload
  • ToutBox
  • Turbobit
  • UpToBox
  • Uplea
  • UploadBaz
  • Uploadable
  • Uploaded
  • Uppit
  • Userscloud
  • ZippyShare
| Sendspace | SolidFiles | UsersCloud
HashesCRC32: 4776939C, MD5: C26D4278D4AA602C20EB982C3C48115C, SHA1: 8A968E5750352679056605F040807DF1AEB4A745, SHA256: 643952773C352B08E24269072BD7AF7C1E1414D532CCA95C1FBA8BF0A6726E05, ED2K: C03C4F47BB7F06E44F2A177D794D1FFB
Screenshots
screenshotscreenshotscreenshotscreenshotscreenshot
Additional Info
General
Unique ID                                : 200242314166804584327917441708126928975 (0x96A54453798D3A4196D01A50ACC4804F)
Complete name                            : [AnimeRG] Fairy Tail - 228 [720p] [10bit] [Eng Dubbed] [JRR].mkv
Format                                   : Matroska
Format version                           : Version 4 / Version 2
File size                                : 128 MiB
Duration                                 : 24mn 40s
Overall bit rate                         : 725 Kbps
Encoded date                             : UTC 2016-05-20 07:13:12
Writing application                      : mkvmerge v9.1.0 ('Little Earthquakes') 64bit
Writing library                          : libebml v1.3.3 + libmatroska v1.4.4

Video
ID                                       : 2
Format                                   : AVC
Format/Info                              : Advanced Video Codec
Format profile                           : High 10@L4.1
Format settings, CABAC                   : Yes
Format settings, ReFrames                : 8 frames
Codec ID                                 : V_MPEG4/ISO/AVC
Duration                                 : 24mn 40s
Bit rate                                 : 658 Kbps
Width                                    : 1 280 pixels
Height                                   : 720 pixels
Display aspect ratio                     : 16:9
Frame rate mode                          : Constant
Frame rate                               : 23.976 (24000/1001) fps
Color space                              : YUV
Chroma subsampling                       : 4:2:0
Bit depth                                : 10 bits
Scan type                                : Progressive
Bits/(Pixel*Frame)                       : 0.030
Stream size                              : 116 MiB (91%)
Writing library                          : x264 core 148 r2665kMod a01e339
Encoding settings                        : cabac=1 / ref=8 / deblock=1:0:0 / analyse=0x3:0x133 / me=umh / subme=10 / psy=1 / fade_compensate=0.00 / psy_rd=0.60:0.00 / mixed_ref=1 / me_range=32 / chroma_me=1 / trellis=2 / 8x8dct=1 / cqm=0 / deadzone=21,11 / fast_pskip=0 / chroma_qp_offset=-2 / threads=1 / lookahead_threads=1 / sliced_threads=0 / nr=0 / decimate=1 / interlaced=0 / bluray_compat=0 / constrained_intra=0 / fgo=0 / bframes=12 / b_pyramid=2 / b_adapt=2 / b_bias=0 / direct=3 / weightb=1 / open_gop=0 / weightp=2 / keyint=250 / keyint_min=23 / scenecut=40 / intra_refresh=0 / rc_lookahead=90 / rc=crf / mbtree=1 / crf=25.0000 / qcomp=0.60 / qpmin=0 / qpmax=81 / qpstep=4 / ip_ratio=1.40 / aq=2:0.60
Language                                 : English
Default                                  : Yes
Forced                                   : No

Audio
ID                                       : 1
Format                                   : AAC
Format/Info                              : Advanced Audio Codec
Format profile                           : HE-AAC / LC
Codec ID                                 : A_AAC
Duration                                 : 24mn 40s
Bit rate                                 : 66.2 Kbps
Channel(s)                               : 2 channels
Channel positions                        : Front: L R
Sampling rate                            : 44.1 KHz / 22.05 KHz
Frame rate                               : 21.533 fps (1024 spf)
Compression mode                         : Lossy
Delay relative to video                  : 44ms
Stream size                              : 11.6 MiB (9%)
Default                                  : Yes
Forced                                   : No

Other Files in this Torrent
[AnimeRG] Fairy Tail - 228 [720p] [10bit] [Eng Dubbed] [JRR].mkv
beta
Anime DDL+NZB mirror
Current Time: 25/10/2021 11:20



About/FAQs

Discord