[AnimeRG] Attack on Titan - 028 (Shingeki no Kyojin) [1080p] [Multi-Sub] [x265] [pseudo].mkv


File Size344.7 MB (361,453,212 bytes)
DownloadClickNUpload | Go4Up | Jheberg | MultiUp
  • ClickNupload
  • Fichier
  • Filerio
  • Free
  • Fufox
  • HugeFiles
  • Mightyupload
  • ToutBox
  • Turbobit
  • UpToBox
  • Uplea
  • UploadBaz
  • Uploadable
  • Uploaded
  • Uppit
  • Userscloud
| OpenLoad | SolidFiles
Sendspace: Part1, Part2
HashesCRC32: 4451AB39, MD5: 8890C2798A42EB9BBA2ECFC70BEC2094, SHA1: AE2927DA43F60C4DE15A02A1E59A4381C1EF68C7, SHA256: BD15DA1F4B6EEAF7E5EF33303DE97133E5512EFBC66D9119A40A3D4D7EB01FAE, ED2K: 54440C4DC8DAB051E36A2F163B5D667D
Screenshots
screenshotscreenshotscreenshotscreenshotscreenshot
SubtitlesAll Attachments | eng [ASS], por [SRT], spa [SRT]
Additional Info
General
Unique ID                                : 239805004683061163395163082920820888216 (0xB468C3912208340DA2646466C8A25298)
Complete name                            : [AnimeRG] Attack on Titan - 028 (Shingeki no Kyojin) [1080p] [Multi-Sub] [x265] [pseudo].mkv
Format                                   : Matroska
Format version                           : Version 4 / Version 2
File size                                : 345 MiB
Duration                                 : 24 min 18 s
Overall bit rate                         : 1 982 kb/s
Encoded date                             : UTC 2017-04-15 15:33:11
Writing application                      : mkvmerge v9.2.0 ('Photograph') 64bit
Writing library                          : libebml v1.3.3 + libmatroska v1.4.4
Attachments                              : OpenSans-Semibold.ttf

Video
ID                                       : 1
Format                                   : HEVC
Format/Info                              : High Efficiency Video Coding
Format profile                           : Main@L5@Main
Codec ID                                 : V_MPEGH/ISO/HEVC
Duration                                 : 24 min 10 s
Bit rate                                 : 1 899 kb/s
Width                                    : 1 920 pixels
Height                                   : 1 080 pixels
Display aspect ratio                     : 16:9
Frame rate mode                          : Constant
Frame rate                               : 23.976 (24000/1001) FPS
Color space                              : YUV
Chroma subsampling                       : 4:2:0
Bit depth                                : 8 bits
Bits/(Pixel*Frame)                       : 0.038
Stream size                              : 328 MiB (95%)
Default                                  : Yes
Forced                                   : No

Audio
ID                                       : 2
Format                                   : AAC
Format/Info                              : Advanced Audio Codec
Format profile                           : LC
Codec ID                                 : A_AAC
Duration                                 : 24 min 10 s
Bit rate                                 : 91.4 kb/s
Channel(s)                               : 2 channels
Channel positions                        : Front: L R
Sampling rate                            : 44.1 kHz
Frame rate                               : 43.066 FPS (1024 spf)
Compression mode                         : Lossy
Delay relative to video                  : 22 ms
Stream size                              : 15.8 MiB (5%)
Title                                    : Japanese Stereo
Language                                 : Japanese
Default                                  : Yes
Forced                                   : No

Text #1
ID                                       : 3
Format                                   : ASS
Codec ID                                 : S_TEXT/ASS
Codec ID/Info                            : Advanced Sub Station Alpha
Duration                                 : 24 min 9 s
Bit rate                                 : 112 b/s
Count of elements                        : 314
Compression mode                         : Lossless
Stream size                              : 19.8 KiB (0%)
Language                                 : English
Default                                  : Yes
Forced                                   : No

Text #2
ID                                       : 4
Format                                   : UTF-8
Codec ID                                 : S_TEXT/UTF8
Codec ID/Info                            : UTF-8 Plain Text
Duration                                 : 24 min 1 s
Bit rate                                 : 54 b/s
Count of elements                        : 306
Stream size                              : 9.60 KiB (0%)
Language                                 : Portuguese
Default                                  : No
Forced                                   : No

Text #3
ID                                       : 5
Format                                   : UTF-8
Codec ID                                 : S_TEXT/UTF8
Codec ID/Info                            : UTF-8 Plain Text
Duration                                 : 24 min 2 s
Bit rate                                 : 48 b/s
Count of elements                        : 275
Stream size                              : 8.55 KiB (0%)
Language                                 : Spanish
Default                                  : No
Forced                                   : No
beta
Anime DDL+NZB mirror
Current Time: 26/09/2021 04:09



About/FAQs

Discord