[AnimeOut] Inuyasha Kanketsuhen - 07 [720p][Taka][AKS].mkv


File Size92.58 MB (97,080,066 bytes)
DownloadASfile | BayFiles | FileFactory | Freakshare | Rapidshare | Sendspace | Ziddu | Zippyshare
HashesCRC32: 9B01656C, MD5: 8EE3DAD95A5F1F28B066F02ADF64C982, SHA1: 7649F89E1C7F82484AD6E7443F8183016E89234A, SHA256: B6E65C134E7B9F95DC2A866512B17784192C522805A802505995081C4204E7DA, ED2K: B48F561FD57913A918FCA1FF6564D9B6
Screenshots
screenshotscreenshotscreenshotscreenshotscreenshot
Subtitles#3: und [ASS]
Additional Info
General
Unique ID                                : 200337767286052293810796968325868644498 (0x96B7A687383EA52496C8302F5C2B6892)
Complete name                            : [AnimeOut] Inuyasha Kanketsuhen - 07 [720p][Taka][AKS].mkv
Format                                   : Matroska
Format version                           : Version 2
File size                                : 92.6 MiB
Duration                                 : 23mn 30s
Overall bit rate mode                    : Variable
Overall bit rate                         : 551 Kbps
Encoded date                             : UTC 2011-07-13 09:39:12
Writing application                      : mkvmerge v4.1.0 ('Boiling Point') built on Jul  1 2010 14:37:28
Writing library                          : libebml v1.0.0 + libmatroska v1.0.0

Video
ID                                       : 1
Format                                   : AVC
Format/Info                              : Advanced Video Codec
Format profile                           : High@L4.0
Format settings, CABAC                   : Yes
Format settings, ReFrames                : 8 frames
Codec ID                                 : V_MPEG4/ISO/AVC
Duration                                 : 23mn 30s
Bit rate                                 : 500 Kbps
Width                                    : 1 280 pixels
Height                                   : 720 pixels
Display aspect ratio                     : 16:9
Frame rate mode                          : Variable / Variable
Frame rate                               : 23.976 fps
Color space                              : YUV
Chroma subsampling                       : 4:2:0
Bit depth                                : 8 bits
Scan type                                : Progressive
Bits/(Pixel*Frame)                       : 0.023
Stream size                              : 82.7 MiB (89%)
Writing library                          : x264 core 115
Encoding settings                        : cabac=1 / ref=8 / deblock=1:1:1 / analyse=0x3:0x113 / me=umh / subme=10 / psy=1 / psy_rd=0.00:0.00 / mixed_ref=1 / me_range=16 / chroma_me=1 / trellis=2 / 8x8dct=1 / cqm=0 / deadzone=21,11 / fast_pskip=1 / chroma_qp_offset=0 / threads=12 / sliced_threads=0 / nr=0 / decimate=1 / interlaced=0 / bluray_compat=0 / constrained_intra=0 / bframes=5 / b_pyramid=2 / b_adapt=2 / b_bias=0 / direct=1 / weightb=1 / open_gop=0 / weightp=2 / keyint=240 / keyint_min=24 / scenecut=40 / intra_refresh=0 / rc_lookahead=40 / rc=2pass / mbtree=1 / bitrate=500 / ratetol=1.0 / qcomp=0.60 / qpmin=3 / qpmax=69 / qpstep=4 / cplxblur=20.0 / qblur=0.5 / ip_ratio=1.40 / aq=2:0.60
Language                                 : English
Default                                  : Yes
Forced                                   : No
Color primaries                          : BT.709-5, BT.1361, IEC 61966-2-4, SMPTE RP177
Transfer characteristics                 : BT.709-5, BT.1361
Matrix coefficients                      : BT.709-5, BT.1361, IEC 61966-2-4 709, SMPTE RP177

Audio
ID                                       : 2
Format                                   : Vorbis
Format settings, Floor                   : 1
Codec ID                                 : A_VORBIS
Duration                                 : 23mn 30s
Bit rate mode                            : Variable
Bit rate                                 : 48.0 Kbps
Channel(s)                               : 1 channel
Sampling rate                            : 48.0 KHz
Compression mode                         : Lossy
Stream size                              : 8.07 MiB (9%)
Writing library                          : aoTuV Beta 5 (UTC 2006-10-24)
Language                                 : un
Default                                  : Yes
Forced                                   : No
Writing application                      : HandBrake

Text
ID                                       : 3
Format                                   : ASS
Codec ID                                 : S_TEXT/ASS
Codec ID/Info                            : Advanced Sub Station Alpha
Compression mode                         : Lossless
Default                                  : Yes
Forced                                   : No

Other Files in this Torrent
[AnimeOut] Inuyasha Kanketsuhen - 07 [720p][Taka][AKS].mkv
beta
Anime DDL+NZB mirror
Current Time: 24/09/2021 15:26



About/FAQs