File Size43.75 MB (45,876,874 bytes)
DownloadClickNUpload | Jheberg | MultiUp
  • BdUpload
  • DownAce
  • Fichier
  • FileCloud
  • Filerio
  • FilesCdn
  • IndiShare
  • Kbagi
  • Solidfiles
  • Turbobit
  • UpToBox
  • Uppit
| OpenLoad | Sendspace | ZippyShare
HashesCRC32: A0DD5D8E, MD5: 2896D884909424433FF15F7F9BF98E5B, SHA1: F0DC4C325E8481033F2223116065DC342578194A, SHA256: C1EA1D41F88FAB5438A86E117B0E298BBDDF46AED1AC0B38D1A820AADCB055E2, ED2K: 3C3099711060E20032B7F7203DD63FF8
Screenshots
screenshotscreenshotscreenshotscreenshot
SubtitlesAll Attachments | eng [ASS]
Additional Info
General
Unique ID                                : 309628273311721037354002987312820444724 (0xE8F03C7F779DADB335F45BDF25E6DE34)
Complete name                            : [AnimeFreak] Miru Tights - 02_v2 [1080p].mkv
Format                                   : Matroska
Format version                           : Version 4
File size                                : 43.8 MiB
Duration                                 : 4 min 5 s
Overall bit rate                         : 1 496 kb/s
Encoded date                             : UTC 2019-05-18 14:55:39
Writing application                      : mkvmerge v32.0.0 ('Astral Progressions') 64-bit
Writing library                          : libebml v1.3.7 + libmatroska v1.5.0
Attachments                              : ARIALNB.TTF / trebucbd.ttf / arial.ttf

Video
ID                                       : 1
Format                                   : AVC
Format/Info                              : Advanced Video Codec
Format profile                           : High@L4
Format settings                          : CABAC / 3 Ref Frames
Format settings, CABAC                   : Yes
Format settings, ReFrames                : 3 frames
Codec ID                                 : V_MPEG4/ISO/AVC
Duration                                 : 4 min 5 s
Bit rate                                 : 1 318 kb/s
Width                                    : 1 920 pixels
Height                                   : 1 080 pixels
Display aspect ratio                     : 16:9
Frame rate mode                          : Constant
Frame rate                               : 23.976 (24000/1001) FPS
Color space                              : YUV
Chroma subsampling                       : 4:2:0
Bit depth                                : 8 bits
Scan type                                : Progressive
Bits/(Pixel*Frame)                       : 0.027
Stream size                              : 38.5 MiB (88%)
Default                                  : Yes
Forced                                   : No
Color range                              : Limited
Color primaries                          : BT.709
Transfer characteristics                 : BT.709
Matrix coefficients                      : BT.709

Audio
ID                                       : 2
Format                                   : AAC LC
Format/Info                              : Advanced Audio Codec Low Complexity
Codec ID                                 : A_AAC-2
Duration                                 : 4 min 5 s
Bit rate                                 : 128 kb/s
Channel(s)                               : 2 channels
Channel layout                           : L R
Sampling rate                            : 44.1 kHz
Frame rate                               : 43.066 FPS (1024 SPF)
Compression mode                         : Lossy
Stream size                              : 3.74 MiB (9%)
Language                                 : English
Default                                  : Yes
Forced                                   : No

Text
ID                                       : 3
Format                                   : ASS
Codec ID                                 : S_TEXT/ASS
Codec ID/Info                            : Advanced Sub Station Alpha
Duration                                 : 2 min 59 s
Bit rate                                 : 181 b/s
Count of elements                        : 48
Compression mode                         : Lossless
Stream size                              : 3.97 KiB (0%)
Language                                 : English
Default                                  : Yes
Forced                                   : No
beta
Anime DDL+NZB mirror
Current Time: 19/10/2019 13:54



About/FAQs