[Anime-WEB] Mahou Shoujo ni Akogarete (Gushing Over Magical Girls) - 13 (WEB 1080p) (Uncensored).mkv


File Size568.6 MB (596,269,541 bytes)
DownloadClickNUpload | DailyUploads | DownloadGG | GoFile | KrakenFiles | MdiaLoad | Uppit
MultiUp: Part1
  • BdUpload
  • DownAce
  • Fichier
  • FileCloud
  • Filerio
  • FilesCdn
  • IndiShare
  • Kbagi
  • Turbobit
  • UpToBox
  • Uppit
, Part2
  • BdUpload
  • DownAce
  • Fichier
  • FileCloud
  • Filerio
  • FilesCdn
  • IndiShare
  • Kbagi
  • Turbobit
  • UpToBox
  • Uppit
HashesCRC32: C884DB28, MD5: 1AEA3EE030E6DD94DD73C2540037C370, SHA1: ADD9C5443EC49BA743FDEC2226204DCA4FBD891C, SHA256: 464A6F3133F2413798CFE00D1C332AC91C05A030E937D904F15D91248A92D641, ED2K: 8F4EF6CFD200BB57F28CF8E0D01C2A94
Screenshots
screenshotscreenshotscreenshotscreenshotscreenshot
SubtitlesAll Attachments | English (Honorific) [enm, ASS]
Additional Info
General
Unique ID                                : 195773089012443505459868376641272581271 (0x9348868375D76E411687DE4857388C97)
Complete name                            : [Anime-WEB] Mahou Shoujo ni Akogarete (Gushing Over Magical Girls) - 13 (WEB 1080p) (Uncensored).mkv
Format                                   : Matroska
Format version                           : Version 4
File size                                : 569 MiB
Duration                                 : 23 min 54 s
Overall bit rate                         : 3 324 kb/s
Frame rate                               : 23.976 FPS
Movie name                               : Mahou Shoujo ni Akogarete (Gushing Over Magical Girls) - 13 (WEB 1080p) (Uncensored)
Encoded date                             : 2024-03-28 07:33:24 UTC
Writing application                      : mkvmerge v82.0 ('I'm The President') 64-bit
Writing library                          : libebml v1.4.5 + libmatroska v1.7.1
Attachments                              : NeutonCursive-Regular.ttf / Fontin Bold.ttf / Fontin Italic.ttf / Fontin Regular.ttf / Fontin Sans CR Bold Italic.ttf / Fontin Sans CR Bold.ttf / Fontin Sans CR Italic.ttf / Fontin Sans Italic.otf / Fontin Sans Regular.otf / Fontin Sans Small Caps.otf / FontinSans-Bold.otf / FontinSans-BoldItalic.otf / SQR721DN.TTF / Swiss 721 Black Condensed BT.ttf / Adobe Garamond Pro Bold.ttf / AGaramondPro-Italic.otf / AGaramondPro-Regular.otf / SWZ721BR.TTF / Genki Desu DEMO.otf / ARCENA.ttf / BubblegumSans-Regular.ttf / Garamondpremrpro-Smbd.otf / Joshiraku v999.otf / SWZ721M.ttf / swz721k_0.ttf / (MyE)CCComicrazy.ttf / Swiss 721 Heavy BT.ttf / tt0756m.ttf / GARA.TTF / GARABD.TTF / GARAIT.TTF / Boogaloo-Regular.ttf / Square Beat DEMO.otf / NeutonReg-2010.9.28-1.51.ttf / TT_Greco-B.TTF / BubbleGum.ttf / Chewy.ttf / ClubTypeMercuriusMedium.ttf / SPOverrideF-Regular.otf / SPOverrideF-Italics.otf / Sub-Alegreya-Bold.otf / Swis721_BT_Bold.ttf / CHILLER.TTF / Stacc222.ttf / VAGRoundedBT.ttf / staccato 555 bt.ttf

Video
ID                                       : 1
Format                                   : AVC
Format/Info                              : Advanced Video Codec
Format profile                           : High@L4.1
Format settings                          : CABAC / 4 Ref Frames
Format settings, CABAC                   : Yes
Format settings, Reference frames        : 4 frames
Codec ID                                 : V_MPEG4/ISO/AVC
Duration                                 : 23 min 54 s
Bit rate                                 : 3 100 kb/s
Width                                    : 1 920 pixels
Height                                   : 1 080 pixels
Display aspect ratio                     : 16:9
Frame rate mode                          : Constant
Frame rate                               : 23.976 (24000/1001) FPS
Color space                              : YUV
Chroma subsampling                       : 4:2:0
Bit depth                                : 8 bits
Scan type                                : Progressive
Bits/(Pixel*Frame)                       : 0.062
Stream size                              : 529 MiB (93%)
Writing library                          : x264 core 160 r3011 cde9a93
Encoding settings                        : cabac=1 / ref=4 / deblock=1:1:1 / analyse=0x3:0x113 / me=hex / subme=7 / psy=1 / psy_rd=0.40:0.00 / mixed_ref=1 / me_range=16 / chroma_me=1 / trellis=1 / 8x8dct=1 / cqm=0 / deadzone=21,11 / fast_pskip=1 / chroma_qp_offset=-2 / threads=24 / lookahead_threads=6 / sliced_threads=0 / nr=0 / decimate=1 / interlaced=0 / bluray_compat=0 / constrained_intra=0 / bframes=5 / b_pyramid=2 / b_adapt=2 / b_bias=0 / direct=1 / weightb=1 / open_gop=0 / weightp=2 / keyint=96 / keyint_min=9 / scenecut=0 / intra_refresh=0 / rc_lookahead=40 / rc=2pass / mbtree=1 / bitrate=3100 / ratetol=1.0 / qcomp=0.60 / qpmin=0 / qpmax=69 / qpstep=4 / cplxblur=20.0 / qblur=0.5 / vbv_maxrate=6200 / vbv_bufsize=3100 / nal_hrd=none / filler=0 / ip_ratio=1.40 / aq=1:0.60
Default                                  : Yes
Forced                                   : No

Audio
ID                                       : 2
Format                                   : AAC LC
Format/Info                              : Advanced Audio Codec Low Complexity
Codec ID                                 : A_AAC-2
Duration                                 : 23 min 54 s
Bit rate                                 : 160 kb/s
Channel(s)                               : 2 channels
Channel layout                           : L R
Sampling rate                            : 48.0 kHz
Frame rate                               : 46.875 FPS (1024 SPF)
Compression mode                         : Lossy
Stream size                              : 27.3 MiB (5%)
Language                                 : Japanese
Default                                  : Yes
Forced                                   : No

Text
ID                                       : 3
Format                                   : ASS
Codec ID                                 : S_TEXT/ASS
Codec ID/Info                            : Advanced Sub Station Alpha
Duration                                 : 23 min 32 s
Bit rate                                 : 10.4 kb/s
Frame rate                               : 20.145 FPS
Count of elements                        : 28462
Compression mode                         : Lossless
Stream size                              : 1.75 MiB (0%)
Title                                    : English (Honorific)
Language                                 : enm
Default                                  : Yes
Forced                                   : No

Menu
00:00:00.000                             : en:Prologue
00:01:37.994                             : en:Opening
00:03:07.959                             : en:Episode
00:22:14.939                             : en:Ending
00:23:44.946                             : en:Epilogue
beta
Anime DDL+NZB mirror
Current Time: 14/06/2024 18:03



About/FAQs

Discord