[Anime-WEB] Mahou Shoujo ni Akogarete (Gushing Over Magical Girls) - 11 (WEB 1080p) (Uncensored).mkv


File Size563.0 MB (590,325,911 bytes)
DownloadClickNUpload | DailyUploads | DownloadGG | GoFile | KrakenFiles | MdiaLoad | Uppit
MultiUp: Part1
  • BdUpload
  • DownAce
  • Fichier
  • FileCloud
  • Filerio
  • FilesCdn
  • IndiShare
  • Kbagi
  • Turbobit
  • UpToBox
  • Uppit
, Part2
  • BdUpload
  • DownAce
  • Fichier
  • FileCloud
  • Filerio
  • FilesCdn
  • IndiShare
  • Kbagi
  • Turbobit
  • UpToBox
  • Uppit
HashesCRC32: 2F46FCBC, MD5: 503D970467F66C2D77F113F05A3547FC, SHA1: 08A8242B82E6CD01EDB5BE7A683E9D004F00C963, SHA256: CAF4BACB67F9D205BF66CE565571319D2F83C1378435BC684FEFC6ECC9EF3EB2, ED2K: E533C4CE521A2EF8271D74179713B1E9
Screenshots
screenshotscreenshotscreenshotscreenshotscreenshot
SubtitlesAll Attachments | English (Honorific) [enm, ASS]
Additional Info
General
Unique ID                                : 170139228966744009703500020568002346557 (0x7FFF9FA2D22B23C9863CAD7A87673E3D)
Complete name                            : [Anime-WEB] Mahou Shoujo ni Akogarete (Gushing Over Magical Girls) - 11 (WEB 1080p) (Uncensored).mkv
Format                                   : Matroska
Format version                           : Version 4
File size                                : 563 MiB
Duration                                 : 23 min 44 s
Overall bit rate                         : 3 314 kb/s
Frame rate                               : 23.976 FPS
Movie name                               : Mahou Shoujo ni Akogarete (Gushing Over Magical Girls) - 11 (WEB 1080p) (Uncensored)
Encoded date                             : 2024-03-14 11:01:10 UTC
Writing application                      : mkvmerge v82.0 ('I'm The President') 64-bit
Writing library                          : libebml v1.4.5 + libmatroska v1.7.1
Attachments                              : ClubTypeMercuriusMedium.ttf / NeutonCursive-Regular.ttf / Fontin Bold.ttf / Fontin Italic.ttf / Fontin Regular.ttf / Fontin Sans CR Bold Italic.ttf / Fontin Sans CR Bold.ttf / Fontin Sans CR Italic.ttf / Fontin Sans Italic.otf / Fontin Sans Regular.otf / Fontin Sans Small Caps.otf / FontinSans-Bold.otf / FontinSans-BoldItalic.otf / staccato 555 bt.ttf / SQR721DN.TTF / Swiss 721 Black Condensed BT.ttf / Adobe Garamond Pro Bold.ttf / AGaramondPro-Italic.otf / AGaramondPro-Regular.otf / SWZ721BR.TTF / Genki Desu DEMO.otf / ARCENA.ttf / BubblegumSans-Regular.ttf / Garamondpremrpro-Smbd.otf / Joshiraku v999.otf / SWZ721M.ttf / swz721k_0.ttf / Swiss 721 Heavy BT.ttf / tt0756m.ttf / CHILLER.TTF / GARA.TTF / GARABD.TTF / GARAIT.TTF / Boogaloo-Regular.ttf / Square Beat DEMO.otf / NeutonReg-2010.9.28-1.51.ttf / TT_Greco-B.TTF / BubbleGum.ttf / Chewy.ttf / SPOverrideF-Regular.otf / SPOverrideF-Italics.otf / Sub-Alegreya-Bold.otf / Swis721_BT_Bold.ttf / VAGRoundedBT.ttf / FirstGrader.ttf

Video
ID                                       : 1
Format                                   : AVC
Format/Info                              : Advanced Video Codec
Format profile                           : High@L4.1
Format settings                          : CABAC / 4 Ref Frames
Format settings, CABAC                   : Yes
Format settings, Reference frames        : 4 frames
Codec ID                                 : V_MPEG4/ISO/AVC
Duration                                 : 23 min 44 s
Bit rate                                 : 3 100 kb/s
Width                                    : 1 920 pixels
Height                                   : 1 080 pixels
Display aspect ratio                     : 16:9
Frame rate mode                          : Constant
Frame rate                               : 23.976 (24000/1001) FPS
Color space                              : YUV
Chroma subsampling                       : 4:2:0
Bit depth                                : 8 bits
Scan type                                : Progressive
Bits/(Pixel*Frame)                       : 0.062
Stream size                              : 524 MiB (93%)
Writing library                          : x264 core 160 r3011 cde9a93
Encoding settings                        : cabac=1 / ref=4 / deblock=1:1:1 / analyse=0x3:0x113 / me=hex / subme=7 / psy=1 / psy_rd=0.40:0.00 / mixed_ref=1 / me_range=16 / chroma_me=1 / trellis=1 / 8x8dct=1 / cqm=0 / deadzone=21,11 / fast_pskip=1 / chroma_qp_offset=-2 / threads=24 / lookahead_threads=6 / sliced_threads=0 / nr=0 / decimate=1 / interlaced=0 / bluray_compat=0 / constrained_intra=0 / bframes=5 / b_pyramid=2 / b_adapt=2 / b_bias=0 / direct=1 / weightb=1 / open_gop=0 / weightp=2 / keyint=96 / keyint_min=9 / scenecut=0 / intra_refresh=0 / rc_lookahead=40 / rc=2pass / mbtree=1 / bitrate=3100 / ratetol=1.0 / qcomp=0.60 / qpmin=0 / qpmax=69 / qpstep=4 / cplxblur=20.0 / qblur=0.5 / vbv_maxrate=6200 / vbv_bufsize=3100 / nal_hrd=none / filler=0 / ip_ratio=1.40 / aq=1:0.60
Default                                  : Yes
Forced                                   : No

Audio
ID                                       : 2
Format                                   : AAC LC
Format/Info                              : Advanced Audio Codec Low Complexity
Codec ID                                 : A_AAC-2
Duration                                 : 23 min 44 s
Bit rate                                 : 160 kb/s
Channel(s)                               : 2 channels
Channel layout                           : L R
Sampling rate                            : 48.0 kHz
Frame rate                               : 46.875 FPS (1024 SPF)
Compression mode                         : Lossy
Stream size                              : 27.1 MiB (5%)
Language                                 : Japanese
Default                                  : Yes
Forced                                   : No

Text
ID                                       : 3
Format                                   : ASS
Codec ID                                 : S_TEXT/ASS
Codec ID/Info                            : Advanced Sub Station Alpha
Duration                                 : 23 min 25 s
Bit rate                                 : 10.4 kb/s
Frame rate                               : 20.242 FPS
Count of elements                        : 28445
Compression mode                         : Lossless
Stream size                              : 1.75 MiB (0%)
Title                                    : English (Honorific)
Language                                 : enm
Default                                  : Yes
Forced                                   : No

Menu
00:00:00.000                             : en:Prologue
00:00:42.021                             : en:Opening
00:02:11.986                             : en:Episode
00:22:09.934                             : en:Ending
00:23:39.941                             : en:Epilogue
beta
Anime DDL+NZB mirror
Current Time: 14/06/2024 19:14



About/FAQs

Discord