[Anime Time] Suki na Ko ga Megane o Wasureta - 13 [1080p][HEVC 10bit x265][AAC][Multi Sub][Erai-raws] Suki na Ko ga Megane o Wasureta - 13 [1080p][Multiple Subtitle][934B4FBD]_new (1).mkv


File Size514.5 MB (539,525,001 bytes)
DownloadClickNUpload | DownloadGG | GoFile | KrakenFiles | MdiaLoad | Uppit
MultiUp: Part1
  • BdUpload
  • DownAce
  • Fichier
  • FileCloud
  • Filerio
  • FilesCdn
  • IndiShare
  • Kbagi
  • Turbobit
  • UpToBox
  • Uppit
, Part2
  • BdUpload
  • DownAce
  • Fichier
  • FileCloud
  • Filerio
  • FilesCdn
  • IndiShare
  • Kbagi
  • Turbobit
  • UpToBox
  • Uppit
HashesCRC32: 3269BCA4, MD5: B3D26802906D6D7C08B9D68CBBF1D222, SHA1: 1AFF8CB3509B1384616051F8CA2AD1B823870C84, SHA256: 5C22CC61618F431B606818016AC35DE16719AC24E06D19ECB30D0A3F88B510D1, ED2K: 334C42EBAACB04E3CBF6EBE2C6D47390
Screenshots
screenshotscreenshotscreenshotscreenshotscreenshot
SubtitlesAll Attachments | English [eng, ASS], Portuguese(Brazil) [por, ASS], Spanish(Latin_America) [spa, ASS], Spanish [spa, ASS], French [fre, ASS], Italian [ita, ASS], Russian [rus, ASS]
Additional Info
General
Unique ID                                : 186940113296825333987674038408443709667 (0x8CA35B2FF5905FA5AD21AA5BC9EDC8E3)
Complete name                            : [Anime Time] Suki na Ko ga Megane o Wasureta - 13 [1080p][HEVC 10bit x265][AAC][Multi Sub][Erai-raws] Suki na Ko ga Megane o Wasureta - 13 [1080p][Multiple Subtitle][934B4FBD]_new (1).mkv
Format                                   : Matroska
Format version                           : Version 4
File size                                : 515 MiB
Duration                                 : 23 min 10 s
Overall bit rate                         : 3 105 kb/s
Frame rate                               : 23.976 FPS
Encoded date                             : 2023-10-15 09:16:56 UTC
Writing application                      : mkvmerge v70.0.0 ('Caught A Lite Sneeze') 64-bit
Writing library                          : libebml v1.4.2 + libmatroska v1.6.4
Attachments                              : AdobeArabic-Bold.otf / AdobeArabic-BoldItalic.otf / AdobeArabic-Italic.otf / AdobeArabic-Regular.otf / Arial_0.ttf / arialbd.ttf / arialbi.ttf / ariblk_0.ttf / calibri.ttf / comic_0.ttf / comicbd.ttf / georgia_0.ttf / georgiab.ttf / georgiaz.ttf / impact_0.ttf / Tahoma_0.ttf / times_0.ttf / trebuc_0.ttf / verdana_0.ttf / ariblk_0.TTF

Video
ID                                       : 1
Format                                   : HEVC
Format/Info                              : High Efficiency Video Coding
Format profile                           : Main 10@L4@Main
Codec ID                                 : V_MPEGH/ISO/HEVC
Duration                                 : 23 min 10 s
Bit rate                                 : 2 888 kb/s
Width                                    : 1 920 pixels
Height                                   : 1 080 pixels
Display aspect ratio                     : 16:9
Frame rate mode                          : Constant
Frame rate                               : 23.976 (24000/1001) FPS
Color space                              : YUV
Chroma subsampling                       : 4:2:0
Bit depth                                : 10 bits
Bits/(Pixel*Frame)                       : 0.058
Stream size                              : 479 MiB (93%)
Writing library                          : x265 3.4+70-90fa80a85:[DJATOM's Mod][Windows][GCC 10.2.1][64 bit] 10bit
Encoding settings                        : cpuid=1111039 / frame-threads=5 / numa-pools=24,24 / wpp / no-pmode / no-pme / no-psnr / no-ssim / log-level=2 / input-csp=1 / input-res=1920x1080 / interlace=0 / total-frames=33328 / level-idc=0 / high-tier=1 / uhd-bd=0 / ref=3 / no-allow-non-conformance / no-repeat-headers / annexb / no-aud / no-hrd / info / hash=0 / no-temporal-layers / open-gop / min-keyint=23 / keyint=250 / gop-lookahead=0 / bframes=4 / b-adapt=2 / b-pyramid / bframe-bias=0 / rc-lookahead=20 / lookahead-slices=6 / scenecut=40 / hist-scenecut=0 / radl=0 / no-splice / no-intra-refresh / ctu=64 / min-cu-size=8 / no-rect / no-amp / max-tu-size=32 / tu-inter-depth=1 / tu-intra-depth=1 / limit-tu=0 / rdoq-level=0 / dynamic-rd=0.00 / no-ssim-rd / signhide / no-tskip / nr-intra=0 / nr-inter=0 / no-constrained-intra / strong-intra-smoothing / max-merge=3 / limit-refs=3 / no-limit-modes / me=1 / subme=2 / merange=57 / temporal-mvp / no-frame-dup / no-hme / weightp / no-weightb / no-analyze-src-pics / deblock=0:0 / sao / no-sao-non-deblock / rd=3 / selective-sao=4 / early-skip / rskip / no-fast-intra / no-tskip-fast / no-cu-lossless / b-intra / no-splitrd-skip / rdpenalty=0 / psy-rd=2.00 / psy-rdoq=0.00 / no-rd-refine / no-lossless / cbqpoffs=0 / crqpoffs=0 / rc=crf / crf=20.0 / qcomp=0.60 / qpstep=4 / stats-write=0 / stats-read=0 / ipratio=1.40 / pbratio=1.30 / aq-mode=3 / aq-strength=1.00 / cutree / zone-count=0 / no-strict-cbr / qg-size=32 / no-rc-grain / qpmax=69 / qpmin=0 / no-const-vbv / sar=0 / overscan=0 / videoformat=5 / range=0 / colorprim=1 / transfer=1 / colormatrix=1 / chromaloc=0 / display-window=0 / cll=0,0 / min-luma=0 / max-luma=1023 / log2-max-poc-lsb=8 / vui-timing-info / vui-hrd-info / slices=1 / no-opt-qp-pps / no-opt-ref-list-length-pps / no-multi-pass-opt-rps / scenecut-bias=0.05 / hist-threshold=0.03 / no-opt-cu-delta-qp / no-aq-motion / no-hdr10 / no-hdr10-opt / no-dhdr10-opt / no-idr-recovery-sei / analysis-reuse-level=0 / analysis-save-reuse-level=0 / analysis-load-reuse-level=0 / scale-factor=0 / refine-intra=0 / refine-inter=0 / refine-mv=1 / refine-ctu-distortion=0 / no-limit-sao / ctu-info=0 / no-lowpass-dct / refine-analysis-type=0 / copy-pic=1 / max-ausize-factor=1.0 / no-dynamic-refine / no-single-sei / no-hevc-aq / no-svt / no-field / qp-adaptation-range=1.00 / no-scenecut-aware-qpconformance-window-offsets / right=0 / bottom=0 / decoder-max-rate=0 / no-vbv-live-multi-pass
Default                                  : Yes
Forced                                   : No
Color range                              : Limited
Color primaries                          : BT.709
Transfer characteristics                 : BT.709
Matrix coefficients                      : BT.709

Audio
ID                                       : 2
Format                                   : AAC LC
Format/Info                              : Advanced Audio Codec Low Complexity
Codec ID                                 : A_AAC-2
Duration                                 : 23 min 10 s
Bit rate                                 : 170 kb/s
Channel(s)                               : 2 channels
Channel layout                           : L R
Sampling rate                            : 44.1 kHz
Frame rate                               : 43.066 FPS (1024 SPF)
Compression mode                         : Lossy
Delay relative to video                  : 22 ms
Stream size                              : 28.2 MiB (5%)
Language                                 : Japanese
Default                                  : No
Forced                                   : No

Text #1
ID                                       : 3
Format                                   : ASS
Codec ID                                 : S_TEXT/ASS
Codec ID/Info                            : Advanced Sub Station Alpha
Duration                                 : 21 min 13 s
Bit rate                                 : 132 b/s
Frame rate                               : 0.258 FPS
Count of elements                        : 329
Compression mode                         : Lossless
Stream size                              : 20.6 KiB (0%)
Title                                    : English
Language                                 : English
Default                                  : Yes
Forced                                   : No

Text #2
ID                                       : 4
Format                                   : ASS
Codec ID                                 : S_TEXT/ASS
Codec ID/Info                            : Advanced Sub Station Alpha
Duration                                 : 21 min 13 s
Bit rate                                 : 136 b/s
Frame rate                               : 0.257 FPS
Count of elements                        : 327
Compression mode                         : Lossless
Stream size                              : 21.2 KiB (0%)
Title                                    : Portuguese(Brazil)
Language                                 : Portuguese
Default                                  : No
Forced                                   : No

Text #3
ID                                       : 5
Format                                   : ASS
Codec ID                                 : S_TEXT/ASS
Codec ID/Info                            : Advanced Sub Station Alpha
Duration                                 : 21 min 13 s
Bit rate                                 : 122 b/s
Frame rate                               : 0.222 FPS
Count of elements                        : 283
Compression mode                         : Lossless
Stream size                              : 19.0 KiB (0%)
Title                                    : Spanish(Latin_America)
Language                                 : Spanish
Default                                  : No
Forced                                   : No

Text #4
ID                                       : 6
Format                                   : ASS
Codec ID                                 : S_TEXT/ASS
Codec ID/Info                            : Advanced Sub Station Alpha
Duration                                 : 21 min 13 s
Bit rate                                 : 124 b/s
Frame rate                               : 0.222 FPS
Count of elements                        : 283
Compression mode                         : Lossless
Stream size                              : 19.3 KiB (0%)
Title                                    : Spanish
Language                                 : Spanish
Default                                  : No
Forced                                   : No

Text #5
ID                                       : 7
Format                                   : ASS
Codec ID                                 : S_TEXT/ASS
Codec ID/Info                            : Advanced Sub Station Alpha
Duration                                 : 23 min 7 s
Bit rate                                 : 126 b/s
Frame rate                               : 0.218 FPS
Count of elements                        : 302
Compression mode                         : Lossless
Stream size                              : 21.4 KiB (0%)
Title                                    : French
Language                                 : French
Default                                  : No
Forced                                   : No

Text #6
ID                                       : 8
Format                                   : ASS
Codec ID                                 : S_TEXT/ASS
Codec ID/Info                            : Advanced Sub Station Alpha
Duration                                 : 21 min 13 s
Bit rate                                 : 154 b/s
Frame rate                               : 0.278 FPS
Count of elements                        : 354
Compression mode                         : Lossless
Stream size                              : 24.0 KiB (0%)
Title                                    : Italian
Language                                 : Italian
Default                                  : No
Forced                                   : No

Text #7
ID                                       : 9
Format                                   : ASS
Codec ID                                 : S_TEXT/ASS
Codec ID/Info                            : Advanced Sub Station Alpha
Duration                                 : 21 min 13 s
Bit rate                                 : 222 b/s
Frame rate                               : 0.261 FPS
Count of elements                        : 332
Compression mode                         : Lossless
Stream size                              : 34.6 KiB (0%)
Title                                    : Russian
Language                                 : Russian
Default                                  : No
Forced                                   : No

Other Files in this Torrent
[Anime Time] Suki na Ko ga Megane o Wasureta - 13 [1080p][HEVC 10bit x265][AAC][Multi Sub][Erai-raws] Suki na Ko ga Megane o Wasureta - 13 [1080p][Multiple Subtitle][934B4FBD]_new (1).mkv
beta
Anime DDL+NZB mirror
Current Time: 12/07/2024 13:37



About/FAQs

Discord