Angels of Death [1080p - Dual Audio - x.265] [MCR]/Angels of Death - 15 - A vow cannot be stolen. ONA 3 [MCR] [B9ED29C4].mkv


File Size446.3 MB (468,011,715 bytes)
DownloadClickNUpload | Go4Up | Jheberg | MultiUp | OpenLoad | SolidFiles | ZippyShare
Sendspace: Part1, Part2
Encrypted DownloadDirect
Password:
HashesCRC32: B9ED29C4, MD5: FCC545CD571AFF16D9BCD6677D92C07F, SHA1: D56DFF64D01EA2B23B85975374E08DAE10CED663, SHA256: 58FF0A965ED1DE994869A2DE6F28F496F032932B9EEBD26ED51081CAECA647A2, ED2K: 2EA3B4454E773AE3DE6D94A5D3FF9D62
Screenshots
screenshotscreenshotscreenshotscreenshotscreenshot
SubtitlesAll Attachments | eng [ASS], ara [ASS], fre [ASS], ita [ASS], por [ASS], rus [ASS], spa [ASS], spa [ASS]
Additional Info
General
Unique ID                                : 187988009723429975006665313732086333953 (0x8D6D2C7856835452A79946DF8DEA0201)
Complete name                            : Angels of Death - 15 - A vow cannot be stolen. ONA 3  [MCR] [B9ED29C4].mkv
Format                                   : Matroska
Format version                           : Version 4 / Version 2
File size                                : 446 MiB
Duration                                 : 23 min 40 s
Overall bit rate                         : 2 636 kb/s
Movie name                               : Angels of Death - 15 - A vow cannot be stolen. ONA 3  [MCR]
Encoded date                             : UTC 2018-11-07 01:42:11
Writing application                      : mkvmerge v15.0.0 ('Duel with the Devil') 64-bit
Writing library                          : libebml v1.3.5 + libmatroska v1.4.5
Cover                                    : Yes
Attachments                              : cover.jpg
Encoded by                               : MCR

Video
ID                                       : 1
Format                                   : HEVC
Format/Info                              : High Efficiency Video Coding
Format profile                           : Main 10@L4@Main
Codec ID                                 : V_MPEGH/ISO/HEVC
Duration                                 : 23 min 40 s
Bit rate                                 : 2 283 kb/s
Width                                    : 1 920 pixels
Height                                   : 1 080 pixels
Display aspect ratio                     : 16:9
Frame rate mode                          : Constant
Frame rate                               : 23.976 (24000/1001) FPS
Color space                              : YUV
Chroma subsampling                       : 4:2:0
Bit depth                                : 10 bits
Bits/(Pixel*Frame)                       : 0.046
Stream size                              : 387 MiB (87%)
Title                                    : [MCR]
Default                                  : Yes
Forced                                   : No

Audio #1
ID                                       : 2
Format                                   : AAC
Format/Info                              : Advanced Audio Codec
Format profile                           : LC
Codec ID                                 : A_AAC
Duration                                 : 23 min 40 s
Bit rate                                 : 217 kb/s
Channel(s)                               : 2 channels
Channel positions                        : Front: L R
Sampling rate                            : 48.0 kHz
Frame rate                               : 46.875 FPS (1024 spf)
Compression mode                         : Lossy
Delay relative to video                  : 20 ms
Stream size                              : 36.7 MiB (8%)
Language                                 : English
Default                                  : Yes
Forced                                   : No

Audio #2
ID                                       : 3
Format                                   : AAC
Format/Info                              : Advanced Audio Codec
Format profile                           : LC
Codec ID                                 : A_AAC
Duration                                 : 23 min 40 s
Bit rate                                 : 132 kb/s
Channel(s)                               : 2 channels
Channel positions                        : Front: L R
Sampling rate                            : 44.1 kHz
Frame rate                               : 43.066 FPS (1024 spf)
Compression mode                         : Lossy
Delay relative to video                  : 22 ms
Stream size                              : 22.3 MiB (5%)
Language                                 : Japanese
Default                                  : No
Forced                                   : No

Text #1
ID                                       : 4
Format                                   : ASS
Codec ID                                 : S_TEXT/ASS
Codec ID/Info                            : Advanced Sub Station Alpha
Duration                                 : 22 min 53 s
Bit rate                                 : 72 b/s
Count of elements                        : 207
Compression mode                         : Lossless
Stream size                              : 12.2 KiB (0%)
Language                                 : English
Default                                  : No
Forced                                   : No

Text #2
ID                                       : 5
Format                                   : ASS
Codec ID                                 : S_TEXT/ASS
Codec ID/Info                            : Advanced Sub Station Alpha
Duration                                 : 23 min 30 s
Bit rate                                 : 80 b/s
Count of elements                        : 209
Compression mode                         : Lossless
Stream size                              : 13.9 KiB (0%)
Language                                 : Arabic
Default                                  : No
Forced                                   : No

Text #3
ID                                       : 6
Format                                   : ASS
Codec ID                                 : S_TEXT/ASS
Codec ID/Info                            : Advanced Sub Station Alpha
Duration                                 : 23 min 30 s
Bit rate                                 : 77 b/s
Count of elements                        : 213
Compression mode                         : Lossless
Stream size                              : 13.3 KiB (0%)
Language                                 : French
Default                                  : No
Forced                                   : No

Text #4
ID                                       : 7
Format                                   : ASS
Codec ID                                 : S_TEXT/ASS
Codec ID/Info                            : Advanced Sub Station Alpha
Duration                                 : 22 min 53 s
Bit rate                                 : 78 b/s
Count of elements                        : 237
Compression mode                         : Lossless
Stream size                              : 13.2 KiB (0%)
Language                                 : Italian
Default                                  : No
Forced                                   : No

Text #5
ID                                       : 8
Format                                   : ASS
Codec ID                                 : S_TEXT/ASS
Codec ID/Info                            : Advanced Sub Station Alpha
Duration                                 : 23 min 30 s
Bit rate                                 : 90 b/s
Count of elements                        : 226
Compression mode                         : Lossless
Stream size                              : 15.6 KiB (0%)
Language                                 : Portuguese
Default                                  : No
Forced                                   : No

Text #6
ID                                       : 9
Format                                   : ASS
Codec ID                                 : S_TEXT/ASS
Codec ID/Info                            : Advanced Sub Station Alpha
Duration                                 : 23 min 30 s
Bit rate                                 : 123 b/s
Count of elements                        : 254
Compression mode                         : Lossless
Stream size                              : 21.2 KiB (0%)
Language                                 : Russian
Default                                  : No
Forced                                   : No

Text #7
ID                                       : 10
Format                                   : ASS
Codec ID                                 : S_TEXT/ASS
Codec ID/Info                            : Advanced Sub Station Alpha
Duration                                 : 23 min 30 s
Bit rate                                 : 72 b/s
Count of elements                        : 208
Compression mode                         : Lossless
Stream size                              : 12.4 KiB (0%)
Language                                 : Spanish
Default                                  : No
Forced                                   : No

Text #8
ID                                       : 11
Format                                   : ASS
Codec ID                                 : S_TEXT/ASS
Codec ID/Info                            : Advanced Sub Station Alpha
Duration                                 : 23 min 30 s
Bit rate                                 : 72 b/s
Count of elements                        : 208
Compression mode                         : Lossless
Stream size                              : 12.4 KiB (0%)
Language                                 : Spanish
Default                                  : No
Forced                                   : No

Menu
00:00:00.000                             : en:Prologue
00:01:25.043                             : en:OP
00:02:55.050                             : en:Part A
00:09:03.085                             : en:Part B
00:18:28.609                             : en:ED
00:19:59.074                             : en:Epilogue
beta
Anime DDL+NZB mirror
Current Time: 09/04/2020 11:10



About/FAQs