File Size292.5 MB (306,706,712 bytes)
DownloadClickNUpload | DailyUploads | DownloadGG | GoFile | KrakenFiles | MdiaLoad | MultiUp
  • BdUpload
  • DownAce
  • Fichier
  • FileCloud
  • Filerio
  • FilesCdn
  • IndiShare
  • Kbagi
  • Turbobit
  • UpToBox
  • Uppit
| Uppit
HashesCRC32: B2AD87B0, MD5: 7A6D0D5863210AB788A067C31EDB911D, SHA1: FD9125422E8B15D993FAB7341B13DD4EBD9597A7, SHA256: CC3D520442D1925EFEA3F4C9768CF544FBAF55EA39A55697459CB077D13390E6, ED2K: E9B6FA16A3ED610E14F4A21B00774E86
Screenshots
screenshotscreenshotscreenshotscreenshotscreenshot
SubtitlesAll Attachments | English [eng, ASS], Portuguese(Brazil) [por, ASS], Spanish(Latin_America) [spa, ASS], Spanish [spa, ASS], Arabic [ara, ASS], French [fre, ASS], German [ger, ASS], Italian [ita, ASS], Russian [rus, ASS]
Additional Info
General
Unique ID                                : 163399126184515251361650703270844998462 (0x7AED86E98200CA1472997A68D6CAA33E)
Complete name                            : [amZero] Sousou no Frieren - 23 [1080p AV1 10Bit][AAC][MultiSubs].mkv
Format                                   : Matroska
Format version                           : Version 4
File size                                : 292 MiB
Duration                                 : 24 min 30 s
Overall bit rate                         : 1 669 kb/s
Frame rate                               : 23.976 FPS
Encoded date                             : 2024-02-16 18:40:32 UTC
Writing application                      : mkvmerge v70.0.0 ('Caught A Lite Sneeze') 64-bit
Writing library                          : libebml v1.4.2 + libmatroska v1.6.4 / Lavf60.18.100
Attachments                              : arialbd.ttf / ARIALBD_0.TTF / arialbi.ttf / arialuni.ttf / Arial_0.ttf / ariblk_0.TTF / calibri.ttf / comicbd.ttf / comic_0.ttf / georgiab.ttf / georgiaz.ttf / georgia_0.ttf / impact_0.ttf / OpenSans-ExtraBold.ttf / OpenSans_Bold.ttf / ROCKEB.TTF / Tahoma_0.ttf / times_0.ttf / trebuc_0.ttf / verdana_0.ttf / AdobeArabic-Bold.otf / AdobeArabic-BoldItalic.otf / AdobeArabic-Italic.otf / AdobeArabic-Regular.otf

Video
ID                                       : 11
Format                                   : AV1
Format/Info                              : AOMedia Video 1
Format profile                           : Main@L4.0
Codec ID                                 : V_AV1
Duration                                 : 24 min 30 s
Bit rate                                 : 1 363 kb/s
Width                                    : 1 920 pixels
Height                                   : 1 080 pixels
Display aspect ratio                     : 16:9
Frame rate mode                          : Constant
Frame rate                               : 23.976 (24000/1001) FPS
Color space                              : YUV
Chroma subsampling                       : 4:2:0
Bit depth                                : 10 bits
Bits/(Pixel*Frame)                       : 0.027
Stream size                              : 239 MiB (82%)
Default                                  : Yes
Forced                                   : No
Color range                              : Limited

Audio
ID                                       : 10
Format                                   : AAC LC
Format/Info                              : Advanced Audio Codec Low Complexity
Codec ID                                 : A_AAC-2
Duration                                 : 24 min 30 s
Bit rate                                 : 128 kb/s
Channel(s)                               : 2 channels
Channel layout                           : L R
Sampling rate                            : 44.1 kHz
Frame rate                               : 43.066 FPS (1024 SPF)
Compression mode                         : Lossy
Stream size                              : 22.4 MiB (8%)
Language                                 : Japanese
Default                                  : Yes
Forced                                   : No

Text #1
ID                                       : 1
Format                                   : ASS
Codec ID                                 : S_TEXT/ASS
Codec ID/Info                            : Advanced Sub Station Alpha
Duration                                 : 24 min 30 s
Bit rate                                 : 117 b/s
Frame rate                               : 0.191 FPS
Count of elements                        : 281
Compression mode                         : Lossless
Stream size                              : 21.1 KiB (0%)
Title                                    : English
Language                                 : English
Default                                  : Yes
Forced                                   : No

Text #2
ID                                       : 2
Format                                   : ASS
Codec ID                                 : S_TEXT/ASS
Codec ID/Info                            : Advanced Sub Station Alpha
Duration                                 : 24 min 30 s
Bit rate                                 : 125 b/s
Frame rate                               : 0.198 FPS
Count of elements                        : 291
Compression mode                         : Lossless
Stream size                              : 22.6 KiB (0%)
Title                                    : Portuguese(Brazil)
Language                                 : Portuguese
Default                                  : No
Forced                                   : No

Text #3
ID                                       : 3
Format                                   : ASS
Codec ID                                 : S_TEXT/ASS
Codec ID/Info                            : Advanced Sub Station Alpha
Duration                                 : 24 min 29 s
Bit rate                                 : 112 b/s
Frame rate                               : 0.164 FPS
Count of elements                        : 241
Compression mode                         : Lossless
Stream size                              : 20.1 KiB (0%)
Title                                    : Spanish(Latin_America)
Language                                 : Spanish
Default                                  : No
Forced                                   : No

Text #4
ID                                       : 4
Format                                   : ASS
Codec ID                                 : S_TEXT/ASS
Codec ID/Info                            : Advanced Sub Station Alpha
Duration                                 : 24 min 30 s
Bit rate                                 : 105 b/s
Frame rate                               : 0.163 FPS
Count of elements                        : 239
Compression mode                         : Lossless
Stream size                              : 19.0 KiB (0%)
Title                                    : Spanish
Language                                 : Spanish
Default                                  : No
Forced                                   : No

Text #5
ID                                       : 5
Format                                   : ASS
Codec ID                                 : S_TEXT/ASS
Codec ID/Info                            : Advanced Sub Station Alpha
Duration                                 : 24 min 30 s
Bit rate                                 : 123 b/s
Frame rate                               : 0.169 FPS
Count of elements                        : 248
Compression mode                         : Lossless
Stream size                              : 22.1 KiB (0%)
Title                                    : Arabic
Language                                 : Arabic
Default                                  : No
Forced                                   : No

Text #6
ID                                       : 6
Format                                   : ASS
Codec ID                                 : S_TEXT/ASS
Codec ID/Info                            : Advanced Sub Station Alpha
Duration                                 : 24 min 29 s
Bit rate                                 : 109 b/s
Frame rate                               : 0.175 FPS
Count of elements                        : 257
Compression mode                         : Lossless
Stream size                              : 19.7 KiB (0%)
Title                                    : French
Language                                 : French
Default                                  : No
Forced                                   : No

Text #7
ID                                       : 7
Format                                   : ASS
Codec ID                                 : S_TEXT/ASS
Codec ID/Info                            : Advanced Sub Station Alpha
Duration                                 : 24 min 29 s
Bit rate                                 : 158 b/s
Frame rate                               : 0.218 FPS
Count of elements                        : 320
Compression mode                         : Lossless
Stream size                              : 28.4 KiB (0%)
Title                                    : German
Language                                 : German
Default                                  : No
Forced                                   : No

Text #8
ID                                       : 8
Format                                   : ASS
Codec ID                                 : S_TEXT/ASS
Codec ID/Info                            : Advanced Sub Station Alpha
Duration                                 : 24 min 29 s
Bit rate                                 : 127 b/s
Frame rate                               : 0.193 FPS
Count of elements                        : 284
Compression mode                         : Lossless
Stream size                              : 22.9 KiB (0%)
Title                                    : Italian
Language                                 : Italian
Default                                  : No
Forced                                   : No

Text #9
ID                                       : 9
Format                                   : ASS
Codec ID                                 : S_TEXT/ASS
Codec ID/Info                            : Advanced Sub Station Alpha
Duration                                 : 24 min 30 s
Bit rate                                 : 179 b/s
Frame rate                               : 0.182 FPS
Count of elements                        : 268
Compression mode                         : Lossless
Stream size                              : 32.2 KiB (0%)
Title                                    : Russian
Language                                 : Russian
Default                                  : No
Forced                                   : No
beta
Anime DDL+NZB mirror
Current Time: 25/05/2024 14:06



About/FAQs

Discord