File Size2.549 GB (2,736,996,257 bytes)
DownloadClickNUpload: Part1, Part2
DownloadGG: Part1, Part2, Part3
KrakenFiles: Part1, Part2, Part3
MultiUp: Part1
  • BdUpload
  • DownAce
  • Fichier
  • FileCloud
  • Filerio
  • FilesCdn
  • IndiShare
  • Kbagi
  • Turbobit
  • UpToBox
  • Uppit
, Part2
  • BdUpload
  • DownAce
  • Fichier
  • FileCloud
  • Filerio
  • FilesCdn
  • IndiShare
  • Kbagi
  • Turbobit
  • UpToBox
  • Uppit
, Part3
  • BdUpload
  • DownAce
  • Fichier
  • FileCloud
  • Filerio
  • FilesCdn
  • IndiShare
  • Kbagi
  • Turbobit
  • UpToBox
  • Uppit
, Part4
  • BdUpload
  • DownAce
  • Fichier
  • FileCloud
  • Filerio
  • FilesCdn
  • IndiShare
  • Kbagi
  • Turbobit
  • UpToBox
  • Uppit
, Part5
  • BdUpload
  • DownAce
  • Fichier
  • FileCloud
  • Filerio
  • FilesCdn
  • IndiShare
  • Kbagi
  • Turbobit
  • UpToBox
  • Uppit
, Part6
  • BdUpload
  • DownAce
  • Fichier
  • FileCloud
  • Filerio
  • FilesCdn
  • IndiShare
  • Kbagi
  • Turbobit
  • UpToBox
  • Uppit

ZippyShare: Part1, Part2, Part3, Part4, Part5, Part6
HashesCRC32: 9F47C006, MD5: 888D0DF727B35DCDE6BB818B7A0498D9, SHA1: A657E5584655BD17C3D6C70DC43F4241DF340886, SHA256: 6F1DAF9516B1296153C8069548D711760EEFC43567666C9971DAE9A904F5AD2E, ED2K: 20323B8760BBE7F3F70C14246801BAD2
Screenshots
screenshotscreenshotscreenshotscreenshotscreenshot
SubtitlesAll Attachments | English [eng, ASS], French [fre, ASS], German [ger, ASS], Italian [ita, ASS], Spanish[ESP] [spa, ASS], Spanish[LAT] [spa, ASS], Portuguese (Brazil) [por, ASS], Russian [rus, ASS], Arabic [ara, ASS], English [Forced] [jpn, ASS], English [Full] (PGS) [eng, PGS], Japanese (PGS) [jpn, PGS]
Additional Info
General
Unique ID                                : 128258280666693546353924488636773749013 (0x607DA5763899B6E4DBA4DD4560ECD115)
Complete name                            : [AkihitoSubs] Gekijouban Jujutsu Kaisen 0 [BD 1080p HEVC][9F47C006].mkv
Format                                   : Matroska
Format version                           : Version 4
File size                                : 2.55 GiB
Duration                                 : 1 h 44 min
Overall bit rate                         : 3 477 kb/s
Encoded date                             : UTC 2022-09-22 15:35:27
Writing application                      : mkvmerge v61.0.0 ('So') 64-bit
Writing library                          : libebml v1.4.2 + libmatroska v1.6.4 / Lavf58.20.100
Attachments                              : arial.ttf / comic.ttf / georgia.ttf / impact.ttf / NotoSans-Medium.ttf / tahoma.ttf / times.ttf / trebuc.ttf / verdana.ttf

Video
ID                                       : 1
Format                                   : HEVC
Format/Info                              : High Efficiency Video Coding
Format profile                           : Main 10@L4@Main
Codec ID                                 : V_MPEGH/ISO/HEVC
Duration                                 : 1 h 44 min
Bit rate                                 : 2 911 kb/s
Width                                    : 1 920 pixels
Height                                   : 802 pixels
Display aspect ratio                     : 2.40:1
Frame rate mode                          : Constant
Frame rate                               : 23.976 (24000/1001) FPS
Color space                              : YUV
Chroma subsampling                       : 4:2:0
Bit depth                                : 10 bits
Bits/(Pixel*Frame)                       : 0.079
Stream size                              : 2.13 GiB (84%)
Writing library                          : x265 3.5+37+12-4e46995bc:[Windows][MSVC 1931][64 bit] 10bit
Encoding settings                        : cpuid=1111039 / frame-threads=4 / numa-pools=16 / wpp / no-pmode / no-pme / no-psnr / no-ssim / log-level=2 / input-csp=1 / input-res=1920x802 / interlace=0 / total-frames=150984 / level-idc=0 / high-tier=1 / uhd-bd=0 / ref=6 / no-allow-non-conformance / no-repeat-headers / annexb / no-aud / no-eob / no-eos / no-hrd / info / hash=0 / no-temporal-layers / open-gop / min-keyint=23 / keyint=240 / gop-lookahead=0 / bframes=16 / b-adapt=2 / b-pyramid / bframe-bias=0 / rc-lookahead=250 / lookahead-slices=4 / scenecut=40 / no-hist-scenecut / radl=0 / no-splice / no-intra-refresh / ctu=64 / min-cu-size=8 / rect / amp / max-tu-size=32 / tu-inter-depth=4 / tu-intra-depth=4 / limit-tu=4 / rdoq-level=2 / dynamic-rd=0.00 / no-ssim-rd / signhide / tskip / nr-intra=0 / nr-inter=0 / no-constrained-intra / no-strong-intra-smoothing / max-merge=5 / limit-refs=3 / limit-modes / me=3 / subme=4 / merange=57 / temporal-mvp / no-frame-dup / no-hme / weightp / weightb / no-analyze-src-pics / deblock=-1:-1 / no-sao / no-sao-non-deblock / rd=4 / selective-sao=0 / early-skip / rskip / no-fast-intra / tskip-fast / no-cu-lossless / b-intra / splitrd-skip / rdpenalty=0 / psy-rd=0.90 / psy-rdoq=1.50 / no-rd-refine / no-lossless / cbqpoffs=0 / crqpoffs=0 / rc=crf / crf=15.0 / qcomp=0.67 / qpstep=4 / stats-write=0 / stats-read=0 / ipratio=1.30 / pbratio=1.20 / aq-mode=3 / aq-strength=0.90 / aq-bias-strength=1.00 / cutree / zone-count=0 / no-strict-cbr / qg-size=32 / no-rc-grain / qpmax=69 / qpmin=0 / no-const-vbv / sar=0 / overscan=0 / videoformat=5 / range=0 / colorprim=2 / transfer=2 / colormatrix=2 / chromaloc=0 / display-window=0 / cll=0,0 / min-luma=0 / max-luma=1023 / log2-max-poc-lsb=8 / vui-timing-info / vui-hrd-info / slices=1 / no-opt-qp-pps / no-opt-ref-list-length-pps / no-multi-pass-opt-rps / scenecut-bias=0.05 / hist-threshold=0.03 / no-opt-cu-delta-qp / no-aq-motion / no-hdr10 / no-hdr10-opt / no-dhdr10-opt / no-idr-recovery-sei / analysis-reuse-level=0 / analysis-save-reuse-level=0 / analysis-load-reuse-level=0 / scale-factor=0 / refine-intra=0 / refine-inter=0 / refine-mv=1 / refine-ctu-distortion=0 / no-limit-sao / ctu-info=0 / no-lowpass-dct / refine-analysis-type=0 / copy-pic=1 / max-ausize-factor=1.0 / no-dynamic-refine / no-single-sei / no-hevc-aq / no-svt / no-field / qp-adaptation-range=1.00 / scenecut-aware-qp=0conformance-window-offsets / right=0 / bottom=0 / decoder-max-rate=0 / no-vbv-live-multi-pass
Default                                  : Yes
Forced                                   : No
Color range                              : Limited

Audio #1
ID                                       : 14
Format                                   : Opus
Codec ID                                 : A_OPUS
Duration                                 : 1 h 44 min
Bit rate                                 : 219 kb/s
Channel(s)                               : 6 channels
Channel layout                           : L R C Lb Rb LFE
Sampling rate                            : 48.0 kHz
Frame rate                               : 50.000 FPS (960 SPF)
Bit depth                                : 32 bits
Compression mode                         : Lossy
Delay relative to video                  : -7 ms
Stream size                              : 164 MiB (6%)
Title                                    : JAP Surround (Opus 256Kbps)
Writing library                          : opusenc from opus-tools 0.2-8-g4976421
Language                                 : Japanese
Default                                  : Yes
Forced                                   : No
ENCODER_OPTIONS                          : --bitrate 256 --vbr

Audio #2
ID                                       : 15
Format                                   : Opus
Codec ID                                 : A_OPUS
Duration                                 : 1 h 44 min
Bit rate                                 : 188 kb/s
Channel(s)                               : 2 channels
Channel layout                           : L R
Sampling rate                            : 48.0 kHz
Frame rate                               : 50.000 FPS (960 SPF)
Bit depth                                : 32 bits
Compression mode                         : Lossy
Delay relative to video                  : -7 ms
Stream size                              : 141 MiB (5%)
Title                                    : JAP Stereo (Opus 192Kbps)
Writing library                          : Lavc58.134.100 libopus
Language                                 : Japanese
Default                                  : Yes
Forced                                   : No

Audio #3
ID                                       : 16
Format                                   : AAC LC
Format/Info                              : Advanced Audio Codec Low Complexity
Codec ID                                 : A_AAC-2
Duration                                 : 1 h 44 min
Bit rate                                 : 128 kb/s
Channel(s)                               : 2 channels
Channel layout                           : L R
Sampling rate                            : 44.1 kHz
Frame rate                               : 43.066 FPS (1024 SPF)
Compression mode                         : Lossy
Delay relative to video                  : 1 s 0 ms
Stream size                              : 96.1 MiB (4%)
Title                                    : ENG Stereo (AAC 128Kbps)
Language                                 : English
Default                                  : Yes
Forced                                   : No

Text #1
ID                                       : 2
Format                                   : ASS
Codec ID                                 : S_TEXT/ASS
Codec ID/Info                            : Advanced Sub Station Alpha
Duration                                 : 1 h 44 min
Bit rate                                 : 103 b/s
Count of elements                        : 1433
Compression mode                         : Lossless
Stream size                              : 78.9 KiB (0%)
Title                                    : English
Language                                 : English
Default                                  : Yes
Forced                                   : No

Text #2
ID                                       : 3
Format                                   : ASS
Codec ID                                 : S_TEXT/ASS
Codec ID/Info                            : Advanced Sub Station Alpha
Duration                                 : 1 h 44 min
Bit rate                                 : 110 b/s
Count of elements                        : 1393
Compression mode                         : Lossless
Stream size                              : 84.3 KiB (0%)
Title                                    : French
Language                                 : French
Default                                  : Yes
Forced                                   : No

Text #3
ID                                       : 4
Format                                   : ASS
Codec ID                                 : S_TEXT/ASS
Codec ID/Info                            : Advanced Sub Station Alpha
Duration                                 : 1 h 44 min
Bit rate                                 : 116 b/s
Count of elements                        : 1464
Compression mode                         : Lossless
Stream size                              : 89.0 KiB (0%)
Title                                    : German
Language                                 : German
Default                                  : Yes
Forced                                   : No

Text #4
ID                                       : 5
Format                                   : ASS
Codec ID                                 : S_TEXT/ASS
Codec ID/Info                            : Advanced Sub Station Alpha
Duration                                 : 1 h 44 min
Bit rate                                 : 135 b/s
Count of elements                        : 1436
Compression mode                         : Lossless
Stream size                              : 104 KiB (0%)
Title                                    : Italian
Language                                 : Italian
Default                                  : Yes
Forced                                   : No

Text #5
ID                                       : 6
Format                                   : ASS
Codec ID                                 : S_TEXT/ASS
Codec ID/Info                            : Advanced Sub Station Alpha
Duration                                 : 1 h 44 min
Bit rate                                 : 103 b/s
Count of elements                        : 1341
Compression mode                         : Lossless
Stream size                              : 79.1 KiB (0%)
Title                                    : Spanish[ESP]
Language                                 : Spanish
Default                                  : Yes
Forced                                   : No

Text #6
ID                                       : 7
Format                                   : ASS
Codec ID                                 : S_TEXT/ASS
Codec ID/Info                            : Advanced Sub Station Alpha
Duration                                 : 1 h 44 min
Bit rate                                 : 103 b/s
Count of elements                        : 1341
Compression mode                         : Lossless
Stream size                              : 78.8 KiB (0%)
Title                                    : Spanish[LAT]
Language                                 : Spanish
Default                                  : Yes
Forced                                   : No

Text #7
ID                                       : 8
Format                                   : ASS
Codec ID                                 : S_TEXT/ASS
Codec ID/Info                            : Advanced Sub Station Alpha
Duration                                 : 1 h 44 min
Bit rate                                 : 107 b/s
Count of elements                        : 1435
Compression mode                         : Lossless
Stream size                              : 82.0 KiB (0%)
Title                                    : Portuguese (Brazil)
Language                                 : Portuguese
Default                                  : Yes
Forced                                   : No

Text #8
ID                                       : 9
Format                                   : ASS
Codec ID                                 : S_TEXT/ASS
Codec ID/Info                            : Advanced Sub Station Alpha
Duration                                 : 1 h 44 min
Bit rate                                 : 196 b/s
Count of elements                        : 1484
Compression mode                         : Lossless
Stream size                              : 150 KiB (0%)
Title                                    : Russian
Language                                 : Russian
Default                                  : Yes
Forced                                   : No

Text #9
ID                                       : 10
Format                                   : ASS
Codec ID                                 : S_TEXT/ASS
Codec ID/Info                            : Advanced Sub Station Alpha
Duration                                 : 1 h 44 min
Bit rate                                 : 124 b/s
Count of elements                        : 1410
Compression mode                         : Lossless
Stream size                              : 94.8 KiB (0%)
Title                                    : Arabic
Language                                 : Arabic
Default                                  : Yes
Forced                                   : No

Text #10
ID                                       : 11
Format                                   : ASS
Codec ID                                 : S_TEXT/ASS
Codec ID/Info                            : Advanced Sub Station Alpha
Duration                                 : 1 h 35 min
Bit rate                                 : 7 b/s
Count of elements                        : 45
Compression mode                         : Lossless
Stream size                              : 5.23 KiB (0%)
Title                                    : English [Forced]
Language                                 : Japanese
Default                                  : Yes
Forced                                   : Yes

Text #11
ID                                       : 12
Format                                   : PGS
Muxing mode                              : zlib
Codec ID                                 : S_HDMV/PGS
Codec ID/Info                            : Picture based subtitle format used on BDs/HD-DVDs
Duration                                 : 1 h 44 min
Bit rate                                 : 34.4 kb/s
Count of elements                        : 2800
Stream size                              : 25.6 MiB (1%)
Title                                    : English [Full] (PGS)
Language                                 : English
Default                                  : Yes
Forced                                   : No

Text #12
ID                                       : 13
Format                                   : PGS
Muxing mode                              : zlib
Codec ID                                 : S_HDMV/PGS
Codec ID/Info                            : Picture based subtitle format used on BDs/HD-DVDs
Duration                                 : 1 h 44 min
Bit rate                                 : 33.7 kb/s
Count of elements                        : 3080
Stream size                              : 25.1 MiB (1%)
Title                                    : Japanese (PGS)
Language                                 : Japanese
Default                                  : Yes
Forced                                   : No

Menu #1
00:00:00.014                             : :Chapter 01
00:00:27.041                             : :Chapter 02
00:06:25.774                             : :Chapter 03
00:26:05.619                             : :Chapter 04
00:46:32.553                             : :Chapter 05
01:06:21.574                             : :Chapter 06
01:35:46.087                             : :Chapter 07
01:43:35.556                             : :Chapter 08

Menu #2
00:00:00.007                             : :Chapter 01
00:00:27.034                             : :Chapter 02
00:06:25.767                             : :Chapter 03
00:26:05.612                             : :Chapter 04
00:46:32.546                             : :Chapter 05
01:06:21.567                             : :Chapter 06
01:35:46.080                             : :Chapter 07
01:43:35.549                             : :Chapter 08
beta
Anime DDL+NZB mirror
Current Time: 07/12/2022 04:12



About/FAQs

Discord