[SO] Akame ga Kill! (2014) - Episode # 16 [1280x720] [BD] [ACC] {Audio Eng&Jpn}.mkv


File Size166.2 MB (174,305,106 bytes)
DownloadClickNUpload | Go4Up | Jheberg | MultiUp
  • ClickNupload
  • Fichier
  • Filerio
  • Free
  • Fufox
  • HugeFiles
  • Mightyupload
  • ToutBox
  • Turbobit
  • UpToBox
  • Uplea
  • UploadBaz
  • Uploadable
  • Uploaded
  • Uppit
  • Userscloud
  • ZippyShare
| OpenLoad | Sendspace | SolidFiles
HashesCRC32: 87E41129, MD5: 9160671E8199E84E68E6594F503A93A6, SHA1: B8D33DAC9984514C080D431D2DE395E35B4CC532, SHA256: D897F5AC2720D5C06F58445A9A32C28C20FC942EEBB1A29E31BB746643D77C24, ED2K: FB9D2C23B4DE12F20A7EC4ED314DE93C
Screenshots
screenshotscreenshotscreenshotscreenshotscreenshot
SubtitlesAll Attachments | English Subtitles [jpn, ASS], Signs & Songs [eng, ASS]
Additional Info
General
Unique ID                                : 192599357640045781123315736102687735650 (0x90E54979CE7CB849BA6E5B642BA3FF62)
Complete name                            : [SO] Akame ga Kill! (2014) - Episode # 16 [1280x720] [BD] [ACC] {Audio Eng&Jpn}.mkv
Format                                   : Matroska
Format version                           : Version 4 / Version 2
File size                                : 166 MiB
Duration                                 : 23 min 41 s
Overall bit rate                         : 981 kb/s
Movie name                               : Encoded By Cleo
Encoded date                             : UTC 2017-04-21 02:12:44
Writing application                      : mkvmerge v8.8.0 ('Wind at my back') 64bit
Writing library                          : libebml v1.3.3 + libmatroska v1.4.4
Attachments                              : angelina.ttf / City Life.ttf / Dominican.ttf / HumanaSerifITCLight.ttf / Sub-Alegreya-Bold.otf / Sub-Alegreya-BoldItalic.otf

Video
ID                                       : 1
Format                                   : HEVC
Format/Info                              : High Efficiency Video Coding
Format profile                           : Main 10@L5@Main
Codec ID                                 : V_MPEGH/ISO/HEVC
Duration                                 : 23 min 40 s
Bit rate                                 : 804 kb/s
Width                                    : 1 280 pixels
Height                                   : 720 pixels
Display aspect ratio                     : 16:9
Frame rate mode                          : Constant
Frame rate                               : 23.976 (24000/1001) FPS
Original frame rate                      : 23.976 (23976/1000) FPS
Color space                              : YUV
Chroma subsampling                       : 4:2:0
Bit depth                                : 10 bits
Bits/(Pixel*Frame)                       : 0.036
Stream size                              : 136 MiB (82%)
Writing library                          : x265 1.6+174-4cccf22b00ee188a:[Windows][GCC 4.9.2][64 bit] 16bpp:Compiling by KG7x [x265.ru]
Encoding settings                        : wpp / ctu=64 / min-cu-size=8 / max-tu-size=32 / tu-intra-depth=2 / tu-inter-depth=2 / me=3 / subme=3 / merange=57 / rect / amp / max-merge=3 / temporal-mvp / no-early-skip / rdpenalty=0 / no-tskip / no-tskip-fast / strong-intra-smoothing / no-lossless / no-cu-lossless / no-constrained-intra / no-fast-intra / no-open-gop / no-temporal-layers / interlace=0 / keyint=250 / min-keyint=23 / scenecut=40 / rc-lookahead=30 / lookahead-slices=0 / bframes=8 / bframe-bias=0 / b-adapt=2 / ref=3 / weightp / weightb / aq-mode=1 / aq-strength=1.00 / cbqpoffs=0 / crqpoffs=0 / rd=6 / psy-rd=0.30 / rdoq-level=2 / psy-rdoq=1.00 / signhide / deblock / sao / no-sao-non-deblock / b-pyramid / cutree / rc=crf / crf=23.0 / qcomp=0.60 / qpmin=0 / qpmax=51 / qpstep=4 / vbv-maxrate=25000 / vbv-bufsize=25000 / crf-max=0.0 / ipratio=1.40 / pbratio=1.30
Default                                  : Yes
Forced                                   : No

Audio #1
ID                                       : 2
Format                                   : AAC
Format/Info                              : Advanced Audio Codec
Format profile                           : Main
Codec ID                                 : A_AAC
Duration                                 : 23 min 41 s
Bit rate                                 : 77.3 kb/s
Channel(s)                               : 2 channels
Channel positions                        : Front: L R
Sampling rate                            : 48.0 kHz
Frame rate                               : 46.875 FPS (1024 spf)
Compression mode                         : Lossy
Stream size                              : 13.1 MiB (8%)
Language                                 : Japanese
Default                                  : No
Forced                                   : No

Audio #2
ID                                       : 4
Format                                   : AAC
Format/Info                              : Advanced Audio Codec
Format profile                           : Main
Codec ID                                 : A_AAC
Duration                                 : 23 min 40 s
Bit rate                                 : 93.6 kb/s
Channel(s)                               : 2 channels
Channel positions                        : Front: L R
Sampling rate                            : 48.0 kHz
Frame rate                               : 46.875 FPS (1024 spf)
Compression mode                         : Lossy
Delay relative to video                  : 19 ms
Stream size                              : 15.9 MiB (10%)
Language                                 : English
Default                                  : Yes
Forced                                   : No

Text #1
ID                                       : 3
Format                                   : ASS
Codec ID                                 : S_TEXT/ASS
Codec ID/Info                            : Advanced Sub Station Alpha
Duration                                 : 23 min 39 s
Bit rate                                 : 192 b/s
Count of elements                        : 443
Compression mode                         : Lossless
Stream size                              : 33.3 KiB (0%)
Title                                    : English Subtitles
Language                                 : Japanese
Default                                  : No
Forced                                   : No

Text #2
ID                                       : 5
Format                                   : ASS
Codec ID                                 : S_TEXT/ASS
Codec ID/Info                            : Advanced Sub Station Alpha
Duration                                 : 22 min 7 s
Bit rate                                 : 108 b/s
Count of elements                        : 153
Compression mode                         : Lossless
Stream size                              : 17.6 KiB (0%)
Title                                    : Signs & Songs
Language                                 : English
Default                                  : Yes
Forced                                   : No

Menu
00:00:00.000                             : :Prologue
00:01:32.884                             : :OP
00:03:02.891                             : :Part A
00:09:22.854                             : :Part B
00:21:54.772                             : :ED
00:23:24.862                             : :Next Episode Preview

Other Files in this Torrent
[SO] Akame ga Kill! (2014) - Episode # 16 [1280x720] [BD] [ACC] {Audio Eng&Jpn}.mkv
beta
Anime DDL+NZB mirror
Current Time: 24/06/2024 04:21



About/FAQs

Discord