[ak-Submarines] Akiyama Yukari's Tank Course - 09 [BD 1080p][05535664].mkv


File Size550.4 MB (577,184,909 bytes)
DownloadAnonFiles | ClickNUpload | DropAPK | Free
MultiUp: Part1
  • BdUpload
  • DownAce
  • Fichier
  • FileCloud
  • Filerio
  • FilesCdn
  • IndiShare
  • Kbagi
  • Turbobit
  • UpToBox
  • Uppit
, Part2
  • BdUpload
  • DownAce
  • Fichier
  • FileCloud
  • Filerio
  • FilesCdn
  • IndiShare
  • Kbagi
  • Turbobit
  • UpToBox
  • Uppit

SolidFiles: Part1, Part2
ZippyShare: Part1, Part2
HashesCRC32: 05535664, MD5: 22B683CDFAE1BFD234697F8E03ACE219, SHA1: C876A440D4F9CD27EB8C7B40B1457C77F8D096AA, SHA256: F6B7631D2F53A13ED9CA1F3A064B66388A4E35D1BBC421176F631EE7A96A2B70, ED2K: A6C6EB6576A37316E42870FB5F2503F1
Screenshots
screenshotscreenshotscreenshotscreenshotscreenshot
SubtitlesAll Attachments | eng [ASS]
Additional Info
General
Unique ID                                : 172039126984654260701900565610946893681 (0x816D87D7250E6CA2CB35824CDEC01771)
Complete name                            : [ak-Submarines] Akiyama Yukari's Tank Course - 09 [BD 1080p][05535664].mkv
Format                                   : Matroska
Format version                           : Version 4
File size                                : 550 MiB
Duration                                 : 17 min 23 s
Overall bit rate mode                    : Variable
Overall bit rate                         : 4 427 kb/s
Movie name                               : [ak-Submarines] Akiyama Yukari's Tank Course - 09 [BD 1080p]
Encoded date                             : UTC 2021-01-10 05:20:19
Writing application                      : mkvmerge v51.0.0 ('I Wish') 64-bit
Writing library                          : libebml v1.4.0 + libmatroska v1.6.2
Attachments                              : LatienneBeckerMed.ttf / LT_3 PL.ttf / RuachLetPlain.ttf / rudiment.medium.ttf / Deadhead Rough.ttf / Estrellass TFB.ttf / FetteMikado.ttf / FOT Rodin Pro EB.ttf / FOT-KokinEdoStd-EB.otf

Video
ID                                       : 3
Format                                   : HEVC
Format/Info                              : High Efficiency Video Coding
Format profile                           : Main 10@L5.1@Main
Codec ID                                 : V_MPEGH/ISO/HEVC
Duration                                 : 17 min 23 s
Bit rate                                 : 2 859 kb/s
Width                                    : 1 920 pixels
Height                                   : 1 080 pixels
Display aspect ratio                     : 16:9
Frame rate mode                          : Constant
Frame rate                               : 23.976 (24000/1001) FPS
Color space                              : YUV
Chroma subsampling                       : 4:2:0
Bit depth                                : 10 bits
Bits/(Pixel*Frame)                       : 0.057
Stream size                              : 355 MiB (65%)
Writing library                          : x265 1.9+5-20f14d78dbad:[Windows][MSVC 1900][64 bit] 10bit
Encoding settings                        : wpp / ctu=32 / min-cu-size=8 / max-tu-size=16 / tu-intra-depth=2 / tu-inter-depth=2 / me=3 / subme=4 / merange=44 / rect / no-amp / max-merge=4 / temporal-mvp / no-early-skip / rdpenalty=2 / no-tskip / no-tskip-fast / no-strong-intra-smoothing / no-lossless / no-cu-lossless / no-constrained-intra / no-fast-intra / no-open-gop / no-temporal-layers / interlace=0 / keyint=360 / min-keyint=1 / scenecut=40 / rc-lookahead=80 / lookahead-slices=4 / bframes=6 / bframe-bias=-5 / b-adapt=2 / ref=5 / limit-refs=2 / limit-modes / weightp / weightb / aq-mode=1 / qg-size=16 / aq-strength=1.10 / cbqpoffs=0 / crqpoffs=0 / rd=5 / psy-rd=1.50 / rdoq-level=1 / psy-rdoq=6.00 / signhide / deblock=-2:-2 / no-sao / no-sao-non-deblock / b-pyramid / cutree / no-intra-refresh / rc=crf / crf=16.5 / qcomp=0.80 / qpmin=0 / qpmax=51 / qpstep=4 / vbv-maxrate=25000 / vbv-bufsize=28000 / crf-max=0.0 / ipratio=1.40 / pbratio=1.20
Language                                 : Japanese
Default                                  : Yes
Forced                                   : No

Audio
ID                                       : 2
Format                                   : FLAC
Format/Info                              : Free Lossless Audio Codec
Codec ID                                 : A_FLAC
Duration                                 : 17 min 23 s
Bit rate mode                            : Variable
Bit rate                                 : 1 433 kb/s
Channel(s)                               : 2 channels
Channel layout                           : L R
Sampling rate                            : 48.0 kHz
Frame rate                               : 11.720 FPS (4096 SPF)
Bit depth                                : 24 bits
Compression mode                         : Lossless
Stream size                              : 178 MiB (32%)
Writing library                          : libFLAC 1.3.1 (UTC 2014-11-25)
Language                                 : Japanese
Default                                  : Yes
Forced                                   : No

Text
ID                                       : 1
Format                                   : ASS
Codec ID                                 : S_TEXT/ASS
Codec ID/Info                            : Advanced Sub Station Alpha
Duration                                 : 17 min 17 s
Bit rate                                 : 109 kb/s
Count of elements                        : 23837
Compression mode                         : Lossless
Stream size                              : 13.5 MiB (2%)
Language                                 : English
Default                                  : Yes
Forced                                   : No

Menu
00:00:00.000                             : :Intro
00:00:09.676                             : :Episode 9
00:17:12.949                             : :Credits
beta
Anime DDL+NZB mirror
Current Time: 18/08/2022 17:19



About/FAQs

Discord