[Ah-le-le] Detective Conan Movie 09 - Strategy Above the Depths (BDRip 720p 10bit AAC AC3) [7CA73B17].mkv


File Size2.261 GB (2,427,966,320 bytes)
DownloadClickNUpload: Part1, Part2, Part3
Jheberg: Part1, Part2, Part3
MultiUp: Part1, Part2, Part3, Part4, Part5
OpenLoad: Part1, Part2, Part3
Sendspace: Part1, Part2, Part3, Part4, Part5, Part6, Part7, Part8
ZippyShare: Part1, Part2, Part3, Part4, Part5
HashesCRC32: 7CA73B17, MD5: 04FB6FFED103499066A53853586E8B33, SHA1: AF21218F0B2BD4B15F12362FC9DCE54BE210A685, SHA256: 278A595C7F94AA7F2F6E223EA3628EAA11ACACB9FB1B758823C49BF2580BB988, ED2K: 9331CF7EA1CAFD790C27875FB00E7810
Screenshots
screenshotscreenshotscreenshotscreenshotscreenshot
SubtitlesAll Attachments | Ah-le-le [eng, ASS]
Additional Info
General
Unique ID                                : 254039045377228925358429717871474072629 (0xBF1E23F4C3A29DADD334ED3A64D15C35)
Complete name                            : [Ah-le-le] Detective Conan Movie 09 - Strategy Above the Depths (BDRip 720p 10bit AAC AC3) [7CA73B17].mkv
Format                                   : Matroska
Format version                           : Version 4
File size                                : 2.26 GiB
Duration                                 : 1 h 47 min
Overall bit rate                         : 3 000 kb/s
Encoded date                             : UTC 2019-01-29 08:58:19
Writing application                      : mkvmerge v29.0.0 ('Like It Or Not') 64-bit
Writing library                          : libebml v1.3.6 + libmatroska v1.4.9
Attachments                              : PTSansNonligature-BoldItalic.otf / TarquiniusPlus-DemiBold.otf / Arial Rounded MT Bold.ttf / arial.ttf / arialbd.ttf / cambriab.ttf / FRAHV.TTF / Girls Have Many Secrets.ttf / Lato-Bol.ttf / Lato-BolIta.ttf / LTFinnegan_Medium.ttf / LTFinnegan_Medium_Italic.ttf / Mf Kazincbarcika.ttf / Montara-Gothic.ttf / palr65w.ttf / PTS75F.ttf / BellCentennialStd-BdListing.otf / PTSansNonligature-Bold.otf

Video
ID                                       : 1
Format                                   : AVC
Format/Info                              : Advanced Video Codec
Format profile                           : High 10@L5
Format settings                          : CABAC / 9 Ref Frames
Format settings, CABAC                   : Yes
Format settings, ReFrames                : 9 frames
Codec ID                                 : V_MPEG4/ISO/AVC
Duration                                 : 1 h 47 min
Bit rate                                 : 2 052 kb/s
Width                                    : 1 280 pixels
Height                                   : 720 pixels
Display aspect ratio                     : 16:9
Frame rate mode                          : Constant
Frame rate                               : 23.976 (24000/1001) FPS
Color space                              : YUV
Chroma subsampling                       : 4:2:0
Bit depth                                : 10 bits
Scan type                                : Progressive
Bits/(Pixel*Frame)                       : 0.093
Stream size                              : 1.55 GiB (68%)
Writing library                          : x264 core 152 r2851+58M 429492e tMod [10-bit@all X86_64] -BEX39- [AnimeSubtitle.com]
Encoding settings                        : cabac=1 / ref=9 / deblock=1:-1:-1 / analyse=0x3:0x133 / me=umh / subme=10 / psy=1 / fade_compensate=0.80 / psy_rd=0.77:0.05 / mixed_ref=1 / me_range=24 / chroma_me=1 / trellis=2 / 8x8dct=1 / cqm=0 / deadzone=21,11 / fast_pskip=1 / chroma_qp_offset=-3 / threads=6 / lookahead_threads=1 / sliced_threads=0 / nr=0 / decimate=1 / interlaced=0 / bluray_compat=0 / constrained_intra=0 / fgo=0 / bframes=10 / b_pyramid=2 / b_adapt=2 / b_bias=0 / direct=3 / weightb=1 / open_gop=0 / weightp=2 / keyint=250 / keyint_min=23 / scenecut=40 / intra_refresh=0 / rc_lookahead=60 / rc=crf / mbtree=1 / crf=16.0000 / qcomp=0.80 / qpmin=0:0:0 / qpmax=51:51:51 / qpstep=4 / ip_ratio=1.40 / aq=3:0.80 / aq-sensitivity=10.00 / aq-factor=1.00:1.00:1.00 / aq2=0 / aq3=0
Language                                 : English
Default                                  : Yes
Forced                                   : No
Color range                              : Limited
Matrix coefficients                      : BT.709

Audio #1
ID                                       : 2
Format                                   : AAC LC
Format/Info                              : Advanced Audio Codec Low Complexity
Codec ID                                 : A_AAC-2
Duration                                 : 1 h 47 min
Bit rate                                 : 298 kb/s
Channel(s)                               : 2 channels
Channel layout                           : L R
Sampling rate                            : 48.0 kHz
Frame rate                               : 46.875 FPS (1024 SPF)
Compression mode                         : Lossy
Stream size                              : 230 MiB (10%)
Title                                    : AAC 2.0
Language                                 : Japanese
Default                                  : Yes
Forced                                   : No

Audio #2
ID                                       : 3
Format                                   : AC-3
Format/Info                              : Audio Coding 3
Commercial name                          : Dolby Digital
Codec ID                                 : A_AC3
Duration                                 : 1 h 47 min
Bit rate mode                            : Constant
Bit rate                                 : 640 kb/s
Channel(s)                               : 6 channels
Channel layout                           : L R C LFE Ls Rs
Sampling rate                            : 48.0 kHz
Frame rate                               : 31.250 FPS (1536 SPF)
Bit depth                                : 16 bits
Compression mode                         : Lossy
Stream size                              : 494 MiB (21%)
Title                                    : AC-3
Language                                 : Japanese
Service kind                             : Complete Main
Default                                  : No
Forced                                   : No

Text
ID                                       : 4
Format                                   : ASS
Codec ID                                 : S_TEXT/ASS
Codec ID/Info                            : Advanced Sub Station Alpha
Duration                                 : 1 h 47 min
Bit rate                                 : 119 b/s
Count of elements                        : 1557
Compression mode                         : Lossless
Stream size                              : 94.2 KiB (0%)
Title                                    : Ah-le-le
Language                                 : English
Default                                  : Yes
Forced                                   : No

Menu
00:00:00.000                             : en:Chapter 1
00:05:08.141                             : en:Chapter 2
00:08:11.700                             : en:Chapter 3
00:15:00.775                             : en:Chapter 4
00:19:25.539                             : en:Chapter 5
00:24:39.186                             : en:Chapter 6
00:30:35.417                             : en:Chapter 7
00:37:00.051                             : en:Chapter 8
00:43:05.500                             : en:Chapter 9
00:49:12.992                             : en:Chapter 10
00:54:49.620                             : en:Chapter 11
01:01:24.264                             : en:Chapter 12
01:07:20.620                             : en:Chapter 13
01:12:33.140                             : en:Chapter 14
01:18:20.112                             : en:Chapter 15
01:26:50.580                             : en:Chapter 16
01:35:52.080                             : en:Chapter 17
01:42:04.952                             : en:Chapter 18
beta
Anime DDL+NZB mirror
Current Time: 03/03/2021 01:52



About/FAQs