[ADZPlus] Etotama - 10 [BD 1080p FLAC].mkv


File Size1.814 GB (1,948,025,438 bytes)
DownloadJheberg: Part1, Part2
MultiUp: Part1
  • ClickNupload
  • Fichier
  • Filerio
  • Free
  • Fufox
  • HugeFiles
  • Mightyupload
  • ToutBox
  • Turbobit
  • UpToBox
  • Uplea
  • UploadBaz
  • Uploadable
  • Uploaded
  • Uppit
  • Userscloud
, Part2
  • ClickNupload
  • Fichier
  • Filerio
  • Free
  • Fufox
  • HugeFiles
  • Mightyupload
  • ToutBox
  • Turbobit
  • UpToBox
  • Uplea
  • UploadBaz
  • Uploadable
  • Uploaded
  • Uppit
  • Userscloud

OpenLoad: Part1, Part2
Sendspace: Part1, Part2, Part3, Part4, Part5, Part6, Part7
SolidFiles: Part1, Part2, Part3, Part4
UsersCloud: Part1, Part2
Encrypted DownloadDirect: Part1, Part2
Password:
HashesCRC32: 2B71B519, MD5: B1654B2BD5CF0FCD696BBCFBEF486663, SHA1: F03A1270CC27865FC919069C4ABC32CE3F41C990, SHA256: E3403A6C03A4A133D4D35095E7CD48A8EBD0ED3EB95A499E50789AC702B4E20C, ED2K: 2F8AF44E8A6AB9C4C881EF50B00288F8
Screenshots
screenshotscreenshotscreenshotscreenshotscreenshot
SubtitlesAll Attachments | eng [ASS]
Additional Info
General
Unique ID                                : 171454749037199849498819767740095384966 (0x80FCFBC87A949A7DB1C7BC6C72DDCD86)
Complete name                            : [ADZPlus] Etotama - 10 [BD 1080p FLAC].mkv
Format                                   : Matroska
Format version                           : Version 4 / Version 2
File size                                : 1.81 GiB
Duration                                 : 23 min 54 s
Overall bit rate mode                    : Variable
Overall bit rate                         : 10.9 Mb/s
Encoded date                             : UTC 2016-12-31 01:00:47
Writing application                      : mkvmerge v9.4.0 ('Knurl') 64bit
Writing library                          : libebml v1.3.4 + libmatroska v1.4.5
Attachments                              : PPETRIAL.ttf / segoeuib.ttf / Ubuntu-R.ttf / yumindb.ttf / LT_3italic.ttf

Video
ID                                       : 1
Format                                   : AVC
Format/Info                              : Advanced Video Codec
Format profile                           : High 10@L4.1
Format settings, CABAC                   : Yes
Format settings, ReFrames                : 4 frames
Codec ID                                 : V_MPEG4/ISO/AVC
Duration                                 : 23 min 54 s
Bit rate                                 : 9 255 kb/s
Width                                    : 1 920 pixels
Height                                   : 1 080 pixels
Display aspect ratio                     : 16:9
Frame rate mode                          : Constant
Frame rate                               : 23.976 (24000/1001) FPS
Color space                              : YUV
Chroma subsampling                       : 4:2:0
Bit depth                                : 10 bits
Scan type                                : Progressive
Bits/(Pixel*Frame)                       : 0.186
Stream size                              : 1.55 GiB (85%)
Writing library                          : x264 core 142 r2491 24e4fed
Encoding settings                        : cabac=1 / ref=4 / deblock=1:0:0 / analyse=0x3:0x133 / me=tesa / subme=11 / psy=1 / psy_rd=0.50:0.00 / mixed_ref=1 / me_range=64 / chroma_me=1 / trellis=2 / 8x8dct=1 / cqm=0 / deadzone=21,11 / fast_pskip=0 / chroma_qp_offset=-2 / threads=36 / lookahead_threads=6 / sliced_threads=0 / nr=0 / decimate=0 / interlaced=0 / bluray_compat=0 / constrained_intra=0 / bframes=9 / b_pyramid=2 / b_adapt=2 / b_bias=0 / direct=3 / weightb=1 / open_gop=0 / weightp=2 / keyint=240 / keyint_min=23 / scenecut=40 / intra_refresh=0 / rc=crf / mbtree=0 / crf=16.0 / qcomp=0.80 / qpmin=0 / qpmax=51 / qpstep=4 / ip_ratio=1.40 / pb_ratio=1.30 / aq=1:0.70
Default                                  : Yes
Forced                                   : No

Audio
ID                                       : 2
Format                                   : FLAC
Format/Info                              : Free Lossless Audio Codec
Codec ID                                 : A_FLAC
Duration                                 : 23 min 54 s
Bit rate mode                            : Variable
Bit rate                                 : 1 521 kb/s
Channel(s)                               : 2 channels
Channel positions                        : Front: L R
Sampling rate                            : 48.0 kHz
Frame rate                               : 11.719 FPS (4096 spf)
Bit depth                                : 24 bits
Stream size                              : 260 MiB (14%)
Writing library                          : libFLAC 1.3.0 (UTC 2013-05-26)
Language                                 : Japanese
Default                                  : Yes
Forced                                   : No

Text
ID                                       : 3
Format                                   : ASS
Codec ID                                 : S_TEXT/ASS
Codec ID/Info                            : Advanced Sub Station Alpha
Duration                                 : 23 min 44 s
Bit rate                                 : 4 156 b/s
Count of elements                        : 3515
Compression mode                         : Lossless
Stream size                              : 723 KiB (0%)
Language                                 : English
Default                                  : Yes
Forced                                   : No

Menu
00:00:00.000                             : :Prologue
00:01:33.000                             : :OP
00:03:03.000                             : :OP Card
00:03:13.000                             : :Part A
00:10:02.000                             : :Eyecatches
00:10:12.000                             : :Part B
00:22:05.000                             : :ED
00:23:35.000                             : :Next Time
00:23:50.000                             : :ED Card

Other Files in this Torrent
[ADZPlus] Etotama - 10 [BD 1080p FLAC].mkv
beta
Anime DDL+NZB mirror
Current Time: 17/11/2019 19:41



About/FAQs